.
Авторизация | Регистрация
Хочешь лучшие торренты? Добавь свой email!
Добавить

Торрент скачать бесплатно

» » Переправа / The Crossing (2018) WEB-DL [H.264 / 720p-LQ] (сезон 1, серии 1 из 12) NewStudio (обновляемая) торрент скачать бесплатно


    Переправа / The Crossing (2018) WEB-DL [H.264 / 720p-LQ] (сезон 1, серии 1 из 12) NewStudio (обновляемая) торрент скачать бесплатно

    Опубликовал: Админ | Дата: 4-04-2018, 05:00 | .torrent скачали: 0

    Переправа / The Crossing (2018) WEB-DL [H.264 / 720p-LQ] (сезон 1, серии 1 из 12) NewStudio (обновляемая)Производство: США/ABC Studios, Jason T. Reed Productions, Stage 49
    Жанр: фантастика, драма, приключения
    Режиссер: Роб Боумен, Кен Джиротти, Джеффри Дж. Хант

    Актеры
    Стив Зан, Рик Гомез, Дэниэл Бойло, Маркис Харрис, Сандрин Холт, Грант Уитни Харви, Симона Кэссел, Роб Кэмпбелл, Джей Карнс, Люк Камиллери и др.

    Описание

    Волны выбрасывают на промозглый орегонский пляж тела непонятно откуда взявшихся беженцев. Все они прибыли из будущего, в котором сейчас вовсю разворачивается очередная мировая война. В том, чем грозит нашествие, пытается разобраться местный шериф.

    Дата мировой премьеры: 19 марта 2018
    Возраст: 18+ (зрителям, достигшим 18 лет)
    Продолжительность: ~00: 43: 00 серия
    Качество видео: WEB-DL
    Перевод: Многоголосый закадровый, профессиональный -NewStudio
    Субтитры: русские (форсированные)
    Видео: AVC/H.264, 1280x720 (16: 9), ~4039 kbps
    Аудио 1: AC-3, 48, 0 kHz, 6 ch, 384 kbps — русский, многоголосый закадровый
    Аудио 2: AC-3, 48, 0 kHz, 6 ch, 384 kbps — английский

    Общее
    Уникальный идентификатор : 21952502238673399834804905213421518035 (0x1083E5EC9B1992FFB29DBDE1AC017CD3)
    Полное имя : F: TorrentsПереправа The Crossing (2018) WEB-DLRip NewStudio 720p сезон любимого сериала 1The.Crossing.s01e01.WEBDL.720p.NewStudio.TV.mkv
    Формат : Matroska
    Версия формата : Version 4/Version 2
    Размер файла : 1, 44 Гбайт
    Продолжительность : 42 м. 44 с.
    Общий поток : 4809 Кбит/сек
    Дата кодирования : UTC 2018-04-03 11: 18: 45
    Программа кодирования : mkvmerge v22.0.0 (\'At The End Of The World\') 64-bit
    Библиотека кодирования : libebml v1.3.5 + libmatroska v1.4.8
    Видео
    Идентификатор : 2
    Формат : AVC
    Формат/Информация : Advanced Video Codec
    Профиль формата : High@L3.1
    Настройки формата : 2 Ref Frames
    Параметр CABAC формата : Нет
    Параметр RefFrames формата : 2 кадра
    Идентификатор кодека : V_MPEG4/ISO/AVC
    Продолжительность : 42 м. 44 с.
    Битрейт : 4039 Кбит/сек
    Ширина : 1280 пикселей
    Высота : 720 пикселей
    Соотношение сторон : 16: 9
    Режим частоты кадров : Постоянный
    Частота кадров : 23, 976 (23976/1000) кадра/сек
    Цветовое пространство : YUV
    Субдискретизация насыщенности : 4: 2: 0
    Битовая глубина : 8 бит
    Тип развёртки : Прогрессивная
    Бит/(Пиксели*Кадры) : 0.183
    Размер потока : 1, 21 Гбайт (84%)
    Язык : English
    Default : Да
    Forced : Нет
    Цветовой диапазон : Limited
    Основные цвета : BT.709
    Характеристики трансфера : BT.709
    Коэффициенты матрицы : BT.709
    Аудио #1
    Идентификатор : 1
    Формат : AC-3
    Формат/Информация : Audio Coding 3
    Идентификатор кодека : A_AC3
    Продолжительность : 42 м. 44 с.
    Вид битрейта : Постоянный
    Битрейт : 384 Кбит/сек
    Каналы : 6 каналов
    Расположение каналов : Front: L C R, Side: L R, LFE
    Частота : 48, 0 КГц
    Частота кадров : 31, 250 кадров/сек (1536 SPF)
    Битовая глубина : 16 бит
    Метод сжатия : С потерями
    Размер потока : 117 Мбайт (8%)
    Язык : Russian
    ServiceKind/String : Complete Main
    Default : Да
    Forced : Да
    Аудио #2
    Идентификатор : 3
    Формат : AC-3
    Формат/Информация : Audio Coding 3
    Идентификатор кодека : A_AC3
    Продолжительность : 42 м. 44 с.
    Вид битрейта : Постоянный
    Битрейт : 384 Кбит/сек
    Каналы : 6 каналов
    Расположение каналов : Front: L C R, Side: L R, LFE
    Частота : 48, 0 КГц
    Частота кадров : 31, 250 кадров/сек (1536 SPF)
    Битовая глубина : 16 бит
    Метод сжатия : С потерями
    Размер потока : 117 Мбайт (8%)
    Язык : English
    ServiceKind/String : Complete Main
    Default : Нет
    Forced : Нет
    Текст
    Идентификатор : 4
    Формат : ASS
    Идентификатор кодека : S_TEXT/ASS
    Идентификатор кодека/Информация : Advanced Sub Station Alpha
    Продолжительность : 10 с. 50 мс.
    Битрейт : 106 бит/сек
    ElementCount : 3
    Метод сжатия : Без потерь
    Размер потока : 134 байт (0%)
    Язык : Russian
    Default : Да
    Forced : Нет


    Онлайн видео Переправа



    Переправа/The Crossing (2018) WEB-DL [H.264/720p-LQ] (сезон 1, серии 1 из 12) NewStudio (обновляемая)
    Рейтинг →
     (голосов: 1, оценка 5/5, голосовать можно 1 раз )

    Другие торренты по теме:

  • Переправа / Crossing Over (2009) BDRip [H.264]
  • Переправа / Crossing Over (2009) BDRip [720p]
  • Переправа / The Crossing (2014) HDRip скачать через торрент бесплатно
  • Переправа / The Crossing (2014) BDRip [H.264 / 1080p] скачать через торрент бесплатно
  • Переправа / The Crossing (2014) BDRip [H.264 / 720p] скачать через торрент бесплатно
  • Переправа / The Crossing (2014) BDRip [1080p] ATV скачать через торрент бесплатно
  • Переправа / The Crossing (2014) BDRip [576p] iPad скачать через торрент бесплатно
  • Переправа / The Crossing (2014) BDRip [720p] ATV скачать через торрент бесплатно


    • Комментарии (0):

      Информация

      Информация

        Посетители, находящиеся в группе Гости, не могут оставлять комментарии в данной новости.

        ↓ Меню




        ↓ Опрос

        Вы добавили сайт в закладки?
        Да
        Нет


        Top 10 за месяц (Фильмы)