.
Авторизация | Регистрация
Хочешь лучшие торренты? Добавь свой email!
Добавить

Торрент скачать бесплатно

» » Доктор Котов (2018) WEB-DLRip [H.264 / 1080p-LQ] (серии 1-4 из 4) торрент скачать бесплатно


    Доктор Котов (2018) WEB-DLRip [H.264 / 1080p-LQ] (серии 1-4 из 4) торрент скачать бесплатно

    Опубликовал: Админ | Дата: 4-04-2018, 05:00 | .torrent скачали: 0

    Доктор Котов (2018) WEB-DLRip [H.264 / 1080p-LQ] (серии 1-4 из 4)Производство: Россия/Кинокомпания Гамма
    Жанр: комедия
    Режиссер: Ашот Кещян

    Актеры
    Иван Оганесян, Светлана Антонова, Дмитрий Мазуров, Виолетта Давыдовская, Любовь Зайцева, Илья Бледный, Нодар Джанелидзе, Сергей Пиоро, Виктория Лукина, Людмила Гаврилова и др.

    Описание

    Свадьба Риты Полуниной с Павлом Захаркиным отменяется из-за того, что ее сестра Светлана попадает в аварию и оказывается в больнице. Чтобы не дать пропасть делу всей жизни Светланы Рита принимает на себя руководство ее ветеринарной клиникой. Каково же оказывается Ритино удивление, когда она обнаруживает, что лучший специалист клиники — ее заклятый враг и по совместительству давнишний возлюбленный Федор Котов. Не сумев найти общего языка спустя много лет после расставания, Рита и Федор начинают открытую войну по выживанию друг друга из клиники.

    Возраст: 12+ (зрителям, достигшим 12 лет)
    Дата российской премьеры: 31 марта 2018
    Релиз от: Алехаndr
    Продолжительность: ~00: 48: 00 серия
    Качество видео: WEB-DLRip
    Видео: AVC/H.264, 1920x1080 (16: 9), ~4000 Kbps
    Аудио: AC3, 2 ch, 192 Kbps

    Общее
    Уникальный идентификатор : 109145446463029394119111538005557499389 (0x521CA5FB29465792AA5990ED66F1D5FD)
    Полное имя : G: Доктор Котов (2018).by.АлехаndrСерия 1.by.Алехаndr.mkv
    Формат : Matroska
    Версия формата : Version 4/Version 2
    Размер файла : 1, 45 Гбайт
    Продолжительность : 49 м. 25 с.
    Общий поток : 4198 Кбит/сек
    Программа кодирования : Lavf57.71.100
    Библиотека кодирования : Lavf57.71.100
    ErrorDetectionType : Per level 1
    Видео
    Идентификатор : 1
    Формат : AVC
    Формат/Информация : Advanced Video Codec
    Профиль формата : High@L4
    Настройки формата : CABAC/3 Ref Frames
    Параметр CABAC формата : Да
    Параметр RefFrames формата : 3 кадра
    Идентификатор кодека : V_MPEG4/ISO/AVC
    Продолжительность : 49 м. 25 с.
    Битрейт : 4000 Кбит/сек
    Ширина : 1920 пикселей
    Высота : 1080 пикселей
    Соотношение сторон : 16: 9
    Режим частоты кадров : Постоянный
    Частота кадров : 25, 000 кадров/сек
    Цветовое пространство : YUV
    Субдискретизация насыщенности : 4: 2: 0
    Битовая глубина : 8 бит
    Тип развёртки : Прогрессивная
    Бит/(Пиксели*Кадры) : 0.077
    Размер потока : 1, 35 Гбайт (93%)
    Библиотека кодирования : x264 core 142 r2389 956c8d8
    Настройки программы : cabac=1/ref=3/deblock=1: 0: 0/analyse=0x3: 0x133/me=umh/subme=7/psy=1/psy_rd=1.00: 0.00/mixed_ref=1/me_range=32/chroma_me=1/trellis=2/8x8dct=1/cqm=0/deadzone=21, 11/fast_pskip=1/chroma_qp_offset=-2/threads=12/lookahead_threads=2/sliced_threads=0/nr=0/decimate=1/interlaced=0/bluray_compat=0/constrained_intra=0/bframes=0/weightp=0/keyint=75/keyint_min=26/scenecut=40/intra_refresh=0/rc_lookahead=50/rc=2pass/mbtree=0/bitrate=4000/ratetol=1.0/qcomp=0.20/qpmin=10/qpmax=51/qpstep=4/cplxblur=20.0/qblur=0.5/vbv_maxrate=5000/vbv_bufsize=5000/nal_hrd=none/filler=0/ip_ratio=1.40/aq=1: 1.00
    Default : Да
    Forced : Нет
    Цветовой диапазон : Limited
    Основные цвета : BT.709
    Характеристики трансфера : BT.709
    Коэффициенты матрицы : BT.709
    Аудио
    Идентификатор : 2
    Формат : AC-3
    Формат/Информация : Audio Coding 3
    Идентификатор кодека : A_AC3
    Продолжительность : 49 м. 25 с.
    Вид битрейта : Постоянный
    Битрейт : 192 Кбит/сек
    Каналы : 2 канала
    Расположение каналов : Front: L R
    Частота : 48, 0 КГц
    Частота кадров : 31, 250 кадров/сек (1536 SPF)
    Битовая глубина : 16 бит
    Метод сжатия : С потерями
    Размер потока : 67, 9 Мбайт (5%)
    Язык : Russian
    ServiceKind/String : Complete Main
    Default : Да
    Forced : Нет

    Скриншоты для ознакомления



    Все одноименные релизы в Клубе
    Время раздачи: 24/7 (круглосуточно) (до появления первых 3-5 скачавших)


    Онлайн видео Доктор Котов (2018) WEB-DLRip [H.264



    Доктор Котов (2018) WEB-DLRip [H.264/1080p-LQ] (серии 1-4 из 4)
    Рейтинг →
     (голосов: 1, оценка 5/5, голосовать можно 1 раз )

    Другие торренты по теме:

  • Доктор Котов (2018) WEB-DLRip (серии 1-4 из 4)


    • Комментарии (0):

      Информация

      Информация

        Посетители, находящиеся в группе Гости, не могут оставлять комментарии в данной новости.

        ↓ Меню




        ↓ Опрос

        Вы добавили сайт в закладки?
        Да
        Нет


        Top 10 за месяц (Фильмы)