.
Авторизация | Регистрация
Хочешь лучшие торренты? Добавь свой email!
Добавить

Торрент скачать бесплатно

» » Суррогаты / Surrogates (2009) BDRip [H.265 / 1080p-LQ] [10-bit] торрент скачать бесплатно


    Суррогаты / Surrogates (2009) BDRip [H.265 / 1080p-LQ] [10-bit] торрент скачать бесплатно

    Опубликовал: Админ | Дата: 4-04-2018, 05:00 | .torrent скачали: 0

    Суррогаты / Surrogates (2009) BDRip [H.265 / 1080p-LQ] [10-bit]Производство: США
    Жанр: Фантастика, Боевик, Триллер
    Режиссер: Джонатан Мостоу

    Актеры
    Брюс Уиллис, Рада Митчел, Розамунд Пайк, Борис Коджо, Джеймс Джинти, Джеймс Кромуэлл, Винг Рэймс, Джек Ноузуорти, Девин Рэтрей, Майкл Кудиц

    Описание

    Действие разворачивается в будущем, в 2057 году, — когда люди практически перестанут общаться между собой и полностью возложат эту функцию на плечи роботов-заменителей. Они сильнее, моложе, привлекательнее своих обладателей и даже могут быть другого пола. Но находится террорист, начинающий уничтожать идеальных андроидов. Полицейскому Тому Гриру предстоит узнать, какие причины движут злоумышленником, лишающим жизни людей и их марионеток, технически и физически совершенных.

    Возраст: 12+ (зрителям, достигшим 12 лет)
    Рейтинг MPAA: PG-13 (детям до 13 лет просмотр нежелателен)
    Релиз от: M@kSIMus
    Продолжительность: 01: 28: 36
    Качество видео: BDRip
    Перевод: Дублированный (Лицензия)
    Субтитры: Русские (Форсированные)
    Видео: HEVC/H.265, 1920x800 (2, 40: 1), ~5436 Kbps
    Аудио: AC3, 6 ch, 640 Kbps

    Общее
    Уникальный идентификатор : 240750350712848066799741499739170759575 (0xB51ED4B987A1E82682C9F6EA70AD6397)
    Полное имя : J: ФИЛЬМЫСуррогаты (2009) BDRip 1080p HEVC 10 bit отM@kSIMus.mkv
    Формат : Matroska
    Версия формата : Version 4/Version 2
    Размер файла : 3, 76 Гбайт
    Продолжительность : 1 ч. 28 м.
    Общий поток : 6078 Кбит/сек
    Название фильма : Релиз подготовлен специально для сайта hevc-club.ucoz.net Автор релиза: M@kSIMus
    Дата кодирования : UTC 2018-03-29 05: 03: 16
    Программа кодирования : mkvmerge v19.0.0 (\'Brave Captain\') 64-bit
    Библиотека кодирования : libebml v1.3.5 + libmatroska v1.4.8
    Обложка : Yes
    Attachments : cover.jpg
    Видео
    Идентификатор : 1
    Формат : HEVC
    Формат/Информация : High Efficiency Video Coding
    Профиль формата : Main 10@L4@Main
    Идентификатор кодека : V_MPEGH/ISO/HEVC
    Продолжительность : 1 ч. 28 м.
    Битрейт : 5436 Кбит/сек
    Ширина : 1920 пикселей
    Высота : 800 пикселей
    Соотношение сторон : 2, 40: 1
    Режим частоты кадров : Постоянный
    Частота кадров : 23, 976 (24000/1001) кадра/сек
    Цветовое пространство : YUV
    Субдискретизация насыщенности : 4: 2: 0
    Битовая глубина : 10 бит
    Бит/(Пиксели*Кадры) : 0.148
    Размер потока : 3, 36 Гбайт (89%)
    Библиотека кодирования : x265 2.3+27-7e137e3ae083: WindowsGCC 5.3.164 bit 10bit
    Настройки программы : cpuid=1173503/frame-threads=2/numa-pools=4/wpp/no-pmode/no-pme/no-psnr/no-ssim/log-level=2/input-csp=1/input-res=1920x800/interlace=0/total-frames=0/level-idc=0/high-tier=1/uhd-bd=0/ref=4/no-allow-non-conformance/no-repeat-t_heads/annexb/no-aud/no-hrd/info/hash=0/no-temporal-layers/open-gop/min-keyint=23/keyint=250/bframes=10/b-adapt=2/b-pyramid/bframe-bias=0/rc-lookahead=60/lookahead-slices=0/scenecut=40/no-intra-refresh/ctu=64/min-cu-size=8/no-rect/no-amp/max-tu-size=32/tu-inter-depth=4/tu-intra-depth=4/limit-tu=4/rdoq-level=2/dynamic-rd=0.00/signhide/no-tskip/nr-intra=0/nr-inter=0/no-constrained-intra/strong-intra-smoothing/max-merge=3/limit-refs=3/no-limit-modes/me=3/subme=5/merange=57/temporal-mvp/weightp/weightb/no-analyze-src-pics/deblock=-3: -3/no-sao/no-sao-non-deblock/rd=4/no-early-skip/rskip/no-fast-intra/no-tskip-fast/no-cu-lossless/b-intra/rdpenalty=0/psy-rd=1.00/psy-rdoq=1.00/no-rd-refine/analysis-mode=0/no-lossless/cbqpoffs=0/crqpoffs=0/rc=crf/crf=20.0/qcomp=0.80/qpstep=4/stats-write=0/stats-read=0/ipratio=1.40/pbratio=1.30/aq-mode=1/aq-strength=0.30/cutree/zone-count=0/no-strict-cbr/qg-size=32/no-rc-grain/qpmax=69/qpmin=0/sar=0/overscan=0/videoformat=5/range=0/colorprim=2/transfer=2/colormatrix=2/chromaloc=0/display-window=0/max-cll=0, 0/min-luma=0/max-luma=1023/log2-max-poc-lsb=8/vui-timing-info/vui-hrd-info/slices=1/opt-qp-pps/opt-ref-list-length-pps/no-multi-pass-opt-rps/scenecut-bias=0.05/no-opt-cu-delta-qp/no-aq-motion/no-hdr/no-hdr-opt/refine-level=5
    Язык : English
    Default : Да
    Forced : Нет
    Аудио
    Идентификатор : 2
    Формат : AC-3
    Формат/Информация : Audio Coding 3
    Идентификатор кодека : A_AC3
    Продолжительность : 1 ч. 28 м.
    Вид битрейта : Постоянный
    Битрейт : 640 Кбит/сек
    Каналы : 6 каналов
    Расположение каналов : Front: L C R, Side: L R, LFE
    Частота : 48, 0 КГц
    Частота кадров : 31, 250 кадров/сек (1536 SPF)
    Битовая глубина : 16 бит
    Метод сжатия : С потерями
    Размер потока : 406 Мбайт (11%)
    Заголовок : Дубляж
    Язык : Russian
    ServiceKind/String : Complete Main
    Default : Да
    Forced : Нет
    Текст
    Идентификатор : 3
    Формат : UTF-8
    Идентификатор кодека : S_TEXT/UTF8
    Идентификатор кодека/Информация : UTF-8 Plain Text
    Продолжительность : 1 ч. 18 м.
    Битрейт : 4 бит/сек
    ElementCount : 51
    Размер потока : 2, 36 Кбайт (0%)
    Заголовок : Forced
    Язык : Russian
    Default : Да
    Forced : Нет
    Доп. информация : - H.265/HEVC (High Efficiency Video Coding) - это новый стандарт кодирования видео.
    - Стандарт H.265/HEVC является логическим продолжением стандарта H.264/AVC (Advanced Video Coding), и характеризуется более эффективными алгоритмами сжатия, а также поддержкой высокого разрешения вплоть до 8K UHD (8192x4320). Первая версия стандарта H.265 была опубликована в начале 2013 года.
    - Рипы в фомате HEVC поддерживается не всеми аппаратными проигрывателями.
    - Для корректного воспроизведения может потребоваться обновление ПО.
    - Владельцам несовместимого железа просьба не беспокоить, есть альтернативные релизы.

    Скриншоты для ознакомления



    Все одноименные релизы в Клубе
    Время раздачи: с 8: 00 до 22: 00 (до появления первых 3-5 скачавших)


    Онлайн видео Суррогаты



    Суррогаты/Surrogates (2009) BDRip [H.265/1080p-LQ] [10-bit]
    Рейтинг →
     (голосов: 1, оценка 4/5, голосовать можно 1 раз )

    Другие торренты по теме:

  • Суррогаты / Surrogates (2009) HDRip [H.264] [MP4|960х400] скачать через торрент бесплатно
  • Суррогаты / Surrogates (2009) HDRip [H.264] [MP4|1280x534]
  • Суррогаты / Surrogates (2009) HDRip [H.264] [MP4|1920x800]


    • Комментарии (0):

      Информация

      Информация

        Посетители, находящиеся в группе Гости, не могут оставлять комментарии в данной новости.

        ↓ Меню




        ↓ Опрос

        Вы добавили сайт в закладки?
        Да
        Нет


        Top 10 за месяц (Фильмы)