.
Авторизация | Регистрация
Хочешь лучшие торренты? Добавь свой email!
Добавить

Торрент скачать бесплатно

» » Пила 8 / Jigsaw (2017) HDRip [H.264] торрент скачать бесплатно


    Пила 8 / Jigsaw (2017) HDRip [H.264] торрент скачать бесплатно

    Опубликовал: Админ | Дата: 4-04-2018, 05:00 | .torrent скачали: 0

    Пила 8 / Jigsaw (2017) HDRip [H.264]Производство: США, Канада/A Bigger Boat, Serendipity Productions, Twisted Pictures
    Жанр: Ужасы, Триллер, Криминал, Детектив
    Режиссер: Майкл Спириг, Питер Спириг
    Продюсер: Марк Бёрг, Грегг Хоффман, Орен Каулз

    Актеры
    Мэтт Пассмор, Тобин Белл, Каллум Кит Ренни, Ханна Андерсон, Кле Беннетт, Лора Вандервурт, Пол Браунштейн, Мандела Ван Пиблз, Бриттани Аллен, Джозиа Блэк и др.

    Описание

    В городе обнаруживают несколько тел, обладатели которых встретили определенно не лучший конец. Все улики указывают на одного человека: Джона Крамера. Но как это возможно? Человек, известный как Пила, мертв уже более десяти лет. Неужели все-таки нашелся тот, кто рискнул подобрать мантию жестокого маньяка?

    Возраст: 18+ (зрителям, достигшим 18 лет. запрещено для детей)
    Рейтинг MPAA: R (лицам до 17 лет обязательно присутствие взрослого)
    Дата мировой премьеры: 26 октября 2017
    Дата российской премьеры: 26 октября 2017, Централ Партнершип
    Релиз от: winchester00100010
    Продолжительность: 01: 31: 57
    Качество видео: HDRip
    Перевод: Дублированный (iTunes)
    Субтитры: отсутствуют
    Видео: AVC/H.264, 1024х428 (2.40: 1), ~1901 kbps, 0.181 bit/pixel
    Аудио: AC3, 6 ch, 384 kbps

    General
    Unique ID : 198326442695808188494675623729724300443 (0x95344891D4158F048D79271CDC829C9B)
    Complete name : D: Торрент файлы раздач вместе с фильмамиJigsaw.2017.HDRip-AVC.mkv
    Format : Matroska
    Format version : Version 2
    File size : 1.47 GiB
    Duration : 1 h 31 min
    Overall bit rate : 2 285 kb/s
    Encoded date : UTC 2018-04-03 02: 27: 05
    Writing application : mkvmerge v5.8.0 (\'No Sleep/Pillow\') built on Sep 2 2012 15: 37: 04
    Writing library : libebml v1.2.3 + libmatroska v1.3.0
    Video
    ID : 1
    Format : AVC
    Format/Info : Advanced Video Codec
    Format profile : High@L4.1
    Format settings : CABAC/12 Ref Frames
    Format settings, CABAC : Yes
    Format settings, ReFrames : 12 frames
    Codec ID : V_MPEG4/ISO/AVC
    Duration : 1 h 31 min
    Bit rate : 1 901 kb/s
    Width : 1 024 pixels
    Height : 428 pixels
    Display aspect ratio : 2.40: 1
    Frame rate mode : Constant
    Frame rate : 23.976 (24000/1001) FPS
    Color space : YUV
    Chroma subsampling : 4: 2: 0
    Bit depth : 8 bits
    Scan type : Progressive
    Bits/(Pixel*Frame) : 0.181
    Stream size : 1.19 GiB (81%)
    Writing library : x264 core 155 r2901 7d0ff22
    Encoding settings : cabac=1/ref=12/deblock=1: -3: -3/analyse=0x3: 0x113/me=umh/subme=9/psy=1/psy_rd=1.00: 0.00/mixed_ref=1/me_range=24/chroma_me=1/trellis=2/8x8dct=1/cqm=0/deadzone=21, 11/fast_pskip=0/chroma_qp_offset=-2/threads=12/lookahead_threads=1/sliced_threads=0/nr=0/decimate=0/interlaced=0/bluray_compat=0/constrained_intra=0/bframes=6/b_pyramid=2/b_adapt=2/b_bias=0/direct=3/weightb=1/open_gop=0/weightp=2/keyint=240/keyint_min=23/scenecut=40/intra_refresh=0/rc_lookahead=40/rc=2pass/mbtree=0/bitrate=1901/ratetol=1.0/qcomp=0.60/qpmin=0/qpmax=69/qpstep=4/cplxblur=20.0/qblur=0.5/vbv_maxrate=14000/vbv_bufsize=14000/nal_hrd=none/filler=0/ip_ratio=1.40/pb_ratio=1.30/aq=1: 1.00
    Language : English
    Default : Yes
    Forced : No
    Statistics Tags Issue : mkvmerge v21.0.0 (\'Tardigrades Will Inherit The Earth\') 64-bit 2018-04-03 02: 23: 34/mkvmerge v5.8.0 (\'No Sleep/Pillow\') built on Sep 2 2012 15: 37: 04 2018-04-03 02: 27: 05
    FromStats_BitRate : 1899168
    FromStats_Duration : 01: 31: 56.970000000
    FromStats_FrameCount : 132275
    FromStats_StreamSize : 1309706984
    Audio
    ID : 2
    Format : AC-3
    Format/Info : Audio Coding 3
    Codec ID : A_AC3
    Duration : 1 h 31 min
    Bit rate mode : Constant
    Bit rate : 384 kb/s
    Channel(s) : 6 channels
    Channel positions : Front: L C R, Side: L R, LFE
    Sampling rate : 48.0 kHz
    Frame rate : 31.250 FPS (1536 SPF)
    Bit depth : 16 bits
    Compression mode : Lossy
    Stream size : 253 MiB (17%)
    Title : Дублированный (iTunes)
    Language : Russian
    Service kind : Complete Main
    Default : Yes
    Forced : Yes

    Скриншоты для ознакомления



    Все одноименные релизы в Клубе
    Время раздачи: с 12: 00 до 00: 00 по МСК (до появления первых 3-5 скачавших), так же могу уйти с раздачи на некоторое время в любой момент


    Онлайн видео Пила 8



    Пила 8/Jigsaw (2017) HDRip [H.264]
    Рейтинг →
     (голосов: 1, оценка 4/5, голосовать можно 1 раз )

    Другие торренты по теме:

  • Пила 8 / Jigsaw (2017) TS [H.264 / 720p-LQ] [AD]
  • Пила 8 / Jigsaw (2017) WEB-DLRip [Звук с TS, AD]
  • Пила 8 / Jigsaw (2017) WEB-DL [H.264 / 1080p-LQ] [EN / EN Sub]
  • Пила 8 / Jigsaw (2017) WEB-DL [H.264 / 720p-LQ] [AD]
  • Пила 8 / Jigsaw (2017) WEB-DL [H.264 / 1080p-LQ] [Line] [AD]
  • Пила 8 / Jigsaw (2017) WEB-DL [H.264 / 1080p-LQ]
  • Пила 8 / Jigsaw (2017) HDRip
  • Пила 8 / Jigsaw (2017) WEB-DLRip [H.264]


    • Комментарии (0):

      Информация

      Информация

        Посетители, находящиеся в группе Гости, не могут оставлять комментарии в данной новости.

        ↓ Меню




        ↓ Опрос

        Вы добавили сайт в закладки?
        Да
        Нет


        Top 10 за месяц (Фильмы)