.
Авторизация | Регистрация
Хочешь лучшие торренты? Добавь свой email!
Добавить

Торрент скачать бесплатно

  • support: webmaster@btracker.org
» » Иностранец / The Foreigner (2017) BDRip [H.265 / 1080p-LQ] [10-bit] торрент скачать бесплатно


    Иностранец / The Foreigner (2017) BDRip [H.265 / 1080p-LQ] [10-bit] торрент скачать бесплатно

    Опубликовал: Админ | Дата: 4-04-2018, 05:00 | .torrent скачали: 0

    Иностранец / The Foreigner (2017) BDRip [H.265 / 1080p-LQ] [10-bit]Производство: Великобритания, Китай, США/Arthur Sarkissian Productions, Entertainer Production Company. Huayi Brothers Media, Robert Simonds Company, Sparkle Roll Media, thefyzz, Wanda Media Co.
    Жанр: Боевик, Триллер, Драма, Детектив
    Режиссер: Мартин Кэмпбелл
    Продюсер: Орен Авив, Philip Button, Джеки Чан

    Актеры
    Джеки Чан, Пирс Броснан, Майкл МакЭлхаттон, Лю Тао, Чарли Мерфи, Орла Брэйди, Кэти Льюнг, Рэй Фиарон, Руфус Джонс, Марк Тэнди

    Описание

    Бывший спецагент, ветеран вьетнамской войны Цюань давно сложил оружие и завел мирную жизнь. Но после того, как в теракте прямо на глазах погибает его дочь-подросток, видя, что власти не спешат разыскивать преступников, Цюань сам начинает поиск убийцы. Он пойдет на все, чтобы совершить праведное возмездие…

    Возраст: 18+ (зрителям, достигшим 18 лет. запрещено для детей)
    Рейтинг MPAA: R (лицам до 17 лет обязательно присутствие взрослого)
    Релиз от: DoSam
    Продолжительность: 01: 53: 52
    Качество видео: BDRip 1080p-LQ
    Перевод: Дублированный (Лицензия)
    Субтитры: Русские (полные)
    Реклама: Отсутствует
    Навигация по главам: Есть
    Видео: HEVC/H.265, 1920x804 (2, 40: 1), ~6073 Kbps
    Аудио: AC3, 6 ch, 640 kb/s

    General
    Unique ID : 85600923249076467636263838282396219427 (0x4066235CD513C7CDE4E7CAEC4AB03823)
    Format : Matroska
    Format version : Version 4/Version 2
    File size : 5.33 GiB
    Duration : 1 h 53 min
    Overall bit rate : 6 703 kb/s
    Movie name : Иностранец
    Encoded date : UTC 2018-04-01 14: 39: 29
    Writing application : mkvmerge v21.0.0 (\'Tardigrades Will Inherit The Earth\') 64-bit
    Writing library : libebml v1.3.5 + libmatroska v1.4.8
    Video
    ID : 1
    Format : HEVC
    Format/Info : High Efficiency Video Coding
    Format profile : Main10@L4.1@High
    Codec ID : V_MPEGH/ISO/HEVC
    Duration : 1 h 53 min
    Bit rate : 6 073 kb/s
    Width : 1 920 pixels
    Height : 804 pixels
    Display aspect ratio : 2.40: 1
    Frame rate mode : Constant
    Frame rate : 23.976 (24000/1001) FPS
    Color space : YUV
    Chroma subsampling : 4: 2: 0
    Bit depth : 10 bits
    Bits/(Pixel*Frame) : 0.164
    Stream size : 4.83 GiB (91%)
    Default : Yes
    Forced : No
    Color range : Limited
    Color primaries : BT.2020
    Transfer characteristics : BT.2020 (10-bit)
    Matrix coefficients : BT.2020 non-constant
    Audio
    ID : 2
    Format : AC-3
    Format/Info : Audio Coding 3
    Codec ID : A_AC3
    Duration : 1 h 51 min
    Bit rate mode : Constant
    Bit rate : 640 kb/s
    Channel(s) : 6 channels
    Channel positions : Front: L C R, Side: L R, LFE
    Sampling rate : 48.0 kHz
    Frame rate : 31.250 FPS (1536 SPF)
    Bit depth : 16 bits
    Compression mode : Lossy
    Stream size : 511 MiB (9%)
    Title : Dub - AC3 5.1 640 kb/s
    Language : Russian
    Service kind : Complete Main
    Default : Yes
    Forced : No
    Text
    ID : 3
    Format : UTF-8
    Codec ID : S_TEXT/UTF8
    Codec ID/Info : UTF-8 Plain Text
    Duration : 1 h 44 min
    Bit rate : 89 b/s
    Count of elements : 1135
    Stream size : 68.6 KiB (0%)
    Title : Full
    Language : Russian
    Default : No
    Forced : No
    Menu
    00: 00: 00.000 : en: 00: 00: 00.000
    00: 08: 19.540 : en: 00: 08: 19.540
    00: 15: 49.572 : en: 00: 15: 49.572
    00: 21: 47.763 : en: 00: 21: 47.763
    00: 27: 04.163 : en: 00: 27: 04.163
    00: 32: 09.509 : en: 00: 32: 09.509
    00: 35: 24.163 : en: 00: 35: 24.163
    00: 38: 30.932 : en: 00: 38: 30.932
    00: 43: 50.168 : en: 00: 43: 50.168
    00: 47: 38.188 : en: 00: 47: 38.188
    00: 54: 10.496 : en: 00: 54: 10.496
    01: 01: 42.322 : en: 01: 01: 42.322
    01: 08: 07.333 : en: 01: 08: 07.333
    01: 14: 14.032 : en: 01: 14: 14.032
    01: 18: 42.926 : en: 01: 18: 42.926
    01: 23: 26.876 : en: 01: 23: 26.876
    01: 29: 18.810 : en: 01: 29: 18.810
    01: 38: 55.011 : en: 01: 38: 55.011
    01: 43: 45.927 : en: 01: 43: 45.927
    01: 47: 09.296 : en: 01: 47: 09.296


    Онлайн видео Иностранец



    Иностранец/The Foreigner (2017) BDRip [H.265/1080p-LQ] [10-bit]
    Рейтинг →
     (голосов: 1, оценка 3/5, голосовать можно 1 раз )

    Другие торренты по теме:

  • Иностранец / The Foreigner (2017) WEBRip [MVO] [AD]
  • Иностранец / The Foreigner (2017) WEBRip [H.264 / 1080p-LQ] [EN / EN, CH Sub]
  • Иностранец / The Foreigner (2017) WEB-DLRip [H.264 / 1080-LQ] [MVO] [AD]
  • Иностранец / The Foreigner (2017) WEB-DLRip [H.264 / 1080-LQ] [Line] [AD]
  • Иностранец / The Foreigner (2017) WEB-DLRip [Line] [AD]
  • Иностранец / The Foreigner (2017) WEB-DLRip [H.264]
  • Иностранец / The Foreigner (2017) WEB-DL [H.264 / 720p-LQ]
  • Иностранец / The Foreigner (2017) WEB-DLRip


    • Комментарии (0):

      Информация

      Информация

        Посетители, находящиеся в группе Гости, не могут оставлять комментарии в данной новости.

        ↓ Меню




        ↓ Опрос

        Вы добавили сайт в закладки?
        Да
        Нет


        Top 10 за месяц (Фильмы)