.
Авторизация | Регистрация
Хочешь лучшие торренты? Добавь свой email!
Добавить

Торрент скачать бесплатно

» » День Кобры / Il giorno del Cobra (1980) BDRip [H.264] торрент скачать бесплатно


    День Кобры / Il giorno del Cobra (1980) BDRip [H.264] торрент скачать бесплатно

    Опубликовал: Админ | Дата: 4-04-2018, 05:00 | .torrent скачали: 0

    День Кобры / Il giorno del Cobra (1980) BDRip [H.264]Производство: Италия/Laser
    Жанр: Боевик, Драма, Криминал
    Режиссер: Энцо Дж. Кастеллари
    Продюсер: Фабрицио Де Анджелис, Тури Вазиле

    Актеры
    Франко Неро, Сибил Даннинг, Марио Марандзана, Личиния Лентини, Эннио Джиролами, Микки Нокс, Массимо Ванни, Саша С. Дарко, Романо Пуппо, Анджело Рагуса, Вильям Бергер

    Описание

    Бывший полицейский охотится за кровавыми деньгами наркодельцов: он стремится достичь истины и для этого у него свои методы. А кто сказал, что всегда побеждает добро?..

    Возраст: 16+ (зрителям, достигшим 16 лет)
    Релиз от: Охрана (NNMCLUB)
    Продолжительность: 01: 34: 54
    Качество видео: BDRip
    Перевод: Профессиональный (многоголосый закадровый)
    Субтитры: Отсутствуют
    Видео: AVC/H.264, 1024x600, ~2908 Kbps
    Аудио 1: Русский, AC3, 2 ch, 192 Kbps, 48.0 kHz
    Аудио 2: Английский, AC3, 2 ch, 192 Kbps, 48.0 kHz

    Общее
    Уникальный идентификатор : 244155138090460716622039459694704133049 (0xB7AE91B3F9745AF28BAD6948D64103B9)
    Полное имя : F: DownloadsДень Кобры. 1980. NNMCLUB.mkv
    Формат : Matroska
    Версия формата : Version 4/Version 2
    Размер файла : 2, 18 Гбайт
    Продолжительность : 1 ч. 34 м.
    Общий поток : 3294 Кбит/сек
    Дата кодирования : UTC 2018-04-01 22: 10: 51
    Программа кодирования : mkvmerge v7.9.0 (\'Birds\') 64bit
    Библиотека кодирования : libebml v1.3.1 + libmatroska v1.4.2
    Видео
    Идентификатор : 1
    Формат : AVC
    Формат/Информация : Advanced Video Codec
    Профиль формата : High@L4.1
    Настройки формата : CABAC/9 Ref Frames
    Параметр CABAC формата : Да
    Параметр RefFrames формата : 9 кадров
    Идентификатор кодека : V_MPEG4/ISO/AVC
    Продолжительность : 1 ч. 34 м.
    Битрейт : 2908 Кбит/сек
    Ширина : 1024 пикселя
    Высота : 600 пикселей
    Соотношение сторон : 1, 707
    Режим частоты кадров : Постоянный
    Частота кадров : 23, 976 (24000/1001) кадра/сек
    Цветовое пространство : YUV
    Субдискретизация насыщенности : 4: 2: 0
    Битовая глубина : 8 бит
    Тип развёртки : Прогрессивная
    Бит/(Пиксели*Кадры) : 0.197
    Размер потока : 1, 93 Гбайт (88%)
    Заголовок : Il giorno del Cobra
    Библиотека кодирования : x264 core 146 r2538 121396c
    Настройки программы : cabac=1/ref=9/deblock=1: -1: -1/analyse=0x3: 0x113/me=umh/subme=10/psy=1/psy_rd=1.00: 0.10/mixed_ref=1/me_range=32/chroma_me=1/trellis=2/8x8dct=1/cqm=0/deadzone=21, 11/fast_pskip=0/chroma_qp_offset=-3/threads=6/lookahead_threads=1/sliced_threads=0/nr=0/decimate=0/interlaced=0/bluray_compat=0/constrained_intra=0/bframes=7/b_pyramid=2/b_adapt=2/b_bias=0/direct=3/weightb=1/open_gop=0/weightp=2/keyint=250/keyint_min=25/scenecut=40/intra_refresh=0/rc_lookahead=60/rc=2pass/mbtree=1/bitrate=2908/ratetol=1.0/qcomp=0.60/qpmin=0/qpmax=69/qpstep=4/cplxblur=20.0/qblur=0.5/vbv_maxrate=14000/vbv_bufsize=14000/nal_hrd=none/filler=0/ip_ratio=1.40/aq=1: 1.00
    Язык : Italian
    Default : Да
    Forced : Нет
    Аудио #1
    Идентификатор : 2
    Формат : AC-3
    Формат/Информация : Audio Coding 3
    Идентификатор кодека : A_AC3
    Продолжительность : 1 ч. 34 м.
    Вид битрейта : Постоянный
    Битрейт : 192 Кбит/сек
    Каналы : 2 канала
    Расположение каналов : Front: L R
    Частота : 48, 0 КГц
    Частота кадров : 31, 250 кадров/сек (1536 SPF)
    Битовая глубина : 16 бит
    Метод сжатия : С потерями
    Размер потока : 130 Мбайт (6%)
    Заголовок : Многоголосый закадровый
    Язык : Russian
    ServiceKind/String : Complete Main
    Default : Да
    Forced : Нет
    Аудио #2
    Идентификатор : 3
    Формат : AC-3
    Формат/Информация : Audio Coding 3
    Идентификатор кодека : A_AC3
    Продолжительность : 1 ч. 34 м.
    Вид битрейта : Постоянный
    Битрейт : 192 Кбит/сек
    Каналы : 2 канала
    Расположение каналов : Front: L R
    Частота : 48, 0 КГц
    Частота кадров : 31, 250 кадров/сек (1536 SPF)
    Битовая глубина : 16 бит
    Метод сжатия : С потерями
    Размер потока : 130 Мбайт (6%)
    Заголовок : Английский
    Язык : English
    ServiceKind/String : Complete Main
    Default : Нет
    Forced : Нет

    Скриншоты для ознакомления




    Все одноименные релизы в Клубе
    Время раздачи: с 13: 00 до 01: 00 МСК, выходные круглосуточно (до появления первых 3-5 скачавших)


    Онлайн видео День Кобры



    День Кобры/Il giorno del Cobra (1980) BDRip [H.264]
    Рейтинг →
     (голосов: 1, оценка 3/5, голосовать можно 1 раз )

    Другие торренты по теме:

  • Яна Белая | Вкусно каждый день (2018) [PDF]
  • Обзор. Чемпионат Европы 2016. Отборочный турнир. 9 тур. 2-й день. 3-й день. Обзор тура. (2015) HDTVRip [H.264 / 720p-LQ] скачать через торрент бесплатно
  • Последний москаль. Судный День / Останній моcкаль. Судний День (2016) WEB-DLRip [H.264 / 720p-LQ] (сезон 2, серии 1-8 из 16) (обновляемая)
  • Последний москаль. Судный День / Останній моcкаль. Судний День (2016) WEB-DLRip (сезон 2, серии 1-8 из 16) (обновляемая)
  • Последний москаль. Судный День / Останній моcкаль. Судний День (2016) WEB-DLRip [H.264 / 1080p-LQ] (сезон 2, серии 1-8 из 16) (обновляемая)
  • Валентин Черных - День приезда - день отъезда (1978) TVRip (2 части) (Театр им. Моссовета)
  • Шумный день (1960) DVDRip
  • День Ангела (1968) DVDRip [H.264]


    • Комментарии (0):

      Информация

      Информация

        Посетители, находящиеся в группе Гости, не могут оставлять комментарии в данной новости.

        ↓ Меню




        ↓ Опрос

        Вы добавили сайт в закладки?
        Да
        Нет


        Top 10 за месяц (Фильмы)