.
Авторизация | Регистрация
Хочешь лучшие торренты? Добавь свой email!
Добавить

Торрент скачать бесплатно

» » Парад планет (1984) WEBRip [H.264 / 1080p-LQ] торрент скачать бесплатно


    Парад планет (1984) WEBRip [H.264 / 1080p-LQ] торрент скачать бесплатно

    Опубликовал: Админ | Дата: 4-04-2018, 05:00 | .torrent скачали: 1

    Парад планет (1984) WEBRip [H.264 / 1080p-LQ]Производство: СССР
    Жанр: Фэнтези, драма
    Режиссер: Вадим Абдрашитов

    Актеры
    Олег Борисов, Сергей Шакуров, Сергей Никоненко, Александр Пашутин, Петр Зайченко, Алексей Жарков, Борис Романов, Елена Майорова, Лилия Гриценко, Марина Шиманская

    Описание

    Редкое астрономическое явление — парад планет — оказывает странное влияние на нескольких мужчин. Шестеро сорокалетних людей жили совершенно разной жизнью. Но неожиданно они вместе отправляются в удивительное путешествие: город воспоминаний, остров женщин, царство старости.

    Возраст: 12+ (зрителям, достигшим 12 лет)
    Релиз от: Алехаndr
    Продолжительность: 01: 31: 11
    Качество видео: WEBRip
    Субтитры: Отсутствуют
    Видео: AVC/H.264, 1480x1080, ~3235 Kbps
    Аудио: AC3, 2 ch, 192 Kbps

    Общее
    Уникальный идентификатор : 121507379348305150950070870190998890272 (0x5B697854384428CEDAA7C7C2BF7F2720)
    Полное имя : D: Парад планет (1984).by.Алехаndr.mkv
    Формат : Matroska
    Версия формата : Version 4/Version 2
    Размер файла : 2, 18 Гбайт
    Продолжительность : 1 ч. 31 м.
    Общий поток : 3430 Кбит/сек
    Дата кодирования : UTC 2018-04-03 11: 01: 39
    Программа кодирования : mkvmerge v22.0.0 (\'At The End Of The World\') 64-bit
    Библиотека кодирования : libebml v1.3.5 + libmatroska v1.4.8/Lavf57.71.100
    Видео
    Идентификатор : 1
    Формат : AVC
    Формат/Информация : Advanced Video Codec
    Профиль формата : Main@L4
    Настройки формата : CABAC/2 Ref Frames
    Параметр CABAC формата : Да
    Параметр RefFrames формата : 2 кадра
    Идентификатор кодека : V_MPEG4/ISO/AVC
    Продолжительность : 1 ч. 31 м.
    Битрейт : 3236 Кбит/сек
    Ширина : 1480 пикселей
    Высота : 1080 пикселей
    Соотношение сторон : 1, 370
    Режим частоты кадров : Постоянный
    Частота кадров : 25, 000 кадров/сек
    Цветовое пространство : YUV
    Субдискретизация насыщенности : 4: 2: 0
    Битовая глубина : 8 бит
    Тип развёртки : Прогрессивная
    Бит/(Пиксели*Кадры) : 0.081
    Размер потока : 2, 06 Гбайт (94%)
    Default : Да
    Forced : Нет
    Аудио
    Идентификатор : 2
    Формат : AC-3
    Формат/Информация : Audio Coding 3
    Идентификатор кодека : A_AC3
    Продолжительность : 1 ч. 31 м.
    Вид битрейта : Постоянный
    Битрейт : 192 Кбит/сек
    Каналы : 2 канала
    Расположение каналов : Front: L R
    Частота : 48, 0 КГц
    Частота кадров : 31, 250 кадров/сек (1536 SPF)
    Битовая глубина : 16 бит
    Метод сжатия : С потерями
    Размер потока : 125 Мбайт (6%)
    ServiceKind/String : Complete Main
    Default : Да
    Forced : Нет

    Скриншоты для ознакомления



    Все одноименные релизы в Клубе
    Время раздачи: 24/7 (круглосуточно) (до появления первых 3-5 скачавших)


    Онлайн видео Парад планет (1984) WEBRip [H.264



    Парад планет (1984) WEBRip [H.264/1080p-LQ]
    Рейтинг →
     (голосов: 1, оценка 3/5, голосовать можно 1 раз )

    Другие торренты по теме:

  • Парад планет (1984) DVDRip [H.264] [Реставрация] скачать через торрент бесплатно
  • VA - Марк Минков - Парад Планет (1983) [FLAC 2.0|96 / 24|image+.cue|Vinyl-Rip] <Pop Rock, Classic Rock>


    • Комментарии (0):

      Информация

      Информация

        Посетители, находящиеся в группе Гости, не могут оставлять комментарии в данной новости.

        ↓ Меню




        ↓ Опрос

        Вы добавили сайт в закладки?
        Да
        Нет


        Top 10 за месяц (Фильмы)