.
Авторизация | Регистрация
Хочешь лучшие торренты? Добавь свой email!
Добавить

Торрент скачать бесплатно

» » Приключения есть приключения / Laventure, cest laventure (1972) BDRip [H.264 / 720p] торрент скачать бесплатно


    Приключения есть приключения / Laventure, cest laventure (1972) BDRip [H.264 / 720p] торрент скачать бесплатно

    Опубликовал: Админ | Дата: 4-04-2018, 05:00 | .torrent скачали: 2

    Приключения есть приключения / Laventure, cest laventure (1972) BDRip [H.264 / 720p]Производство: Франция, Италия. Les Films 13, Les Films Ariane, Les Productions Artistes Associés
    Жанр: Комедия, Приключения
    Режиссер: Клод Лелуш

    Актеры
    Лино Вентура, Жак Брель, Шарль Деннер, Джонни Халлидей, Шарль Жерар, Альдо Маччоне, Николь Курсель, Ив Робер, Андре Фалкон, Хуан Луис Бунюэль

    Описание

    Для преступников всех мастей наступила тяжёлая жизнь — у них практически нет доходов. В банках нет наличных денег, добропорядочные обыватели изо всех сил сопротивляются отъёму у них честно заработанных средств и даже проститутки не нуждаются в клиентах, а значит и в покровительстве со стороны мафиозных структур. В связи с этим пять главных авторитетов Франции проводят сходку, на которой решают сменить профиль деятельности. Они намереваются заняться более доходным делом — политикой. Однако непривычное занятие втягивает их в новые неприятности…

    Возраст: 18+ (зрителям, достигшим 18 лет. запрещено для детей)
    Рейтинг MPAA: R (лицам до 17 лет обязательно присутствие взрослого)
    Качество видео: BDRip
    Перевод: Многоголосый закадровый
    Субтитры: отсутствуют
    Видео: AVC/H.264, 1200x720, ~6 700 kbps
    Аудио 1: AC3, 2 ch, 256 kbps | Русский – MVO (НТВ)
    Аудио 2: AC3, 2 ch, 256 kbps | Французский (Оригинал)

    Общее
    Уникальный идентификатор : 233469957626142379833527672565693752036 (0xAFA4ADA1D681DE6796D5A23D3D2922E4)
    Полное имя : L: АРХИВПриключения есть приключенияПриключения есть приключения. 1972.mkv
    Формат : Matroska
    Версия формата : Version 4/Version 2
    Размер файла : 6, 11 Гбайт
    Продолжительность : 2 ч. 1 м.
    Общий поток : 7213 Кбит/сек
    Название фильма : Release for Topmost
    Дата кодирования : UTC 2018-04-02 04: 26: 40
    Программа кодирования : mkvmerge v6.2.0 (\'Promised Land\') built on Apr 28 2013 12: 22: 01
    Библиотека кодирования : libebml v1.3.0 + libmatroska v1.4.0
    Attachment : Yes
    Видео
    Идентификатор : 1
    Формат : AVC
    Формат/Информация : Advanced Video Codec
    Профиль формата : High@L4.1
    Параметр CABAC формата : Да
    Параметр ReFrames формата : 10 кадров
    Идентификатор кодека : V_MPEG4/ISO/AVC
    Продолжительность : 2 ч. 1 м.
    Битрейт : 6700 Кбит/сек
    Ширина : 1200 пикселей
    Высота : 720 пикселей
    Соотношение сторон : 1, 667
    Режим частоты кадров : Постоянный
    Частота кадров : 24, 000 кадра/сек
    Цветовое пространство : YUV
    Субдискретизация насыщенности : 4: 2: 0
    Битовая глубина : 8 бит
    Тип развёртки : Прогрессивная
    Бит/(Пиксели*Кадры) : 0.323
    Размер потока : 5, 56 Гбайт (91%)
    Заголовок : Приключения есть приключения. 1972 (Release for Topmost)
    Библиотека кодирования : x264 core 146 r2538 121396c
    Настройки программы : cabac=1/ref=10/deblock=1: -3: -3/analyse=0x3: 0x113/me=umh/subme=11/psy=1/psy_rd=1.00: 0.15/mixed_ref=1/me_range=32/chroma_me=1/trellis=2/8x8dct=1/cqm=0/deadzone=21, 11/fast_pskip=0/chroma_qp_offset=-3/threads=12/lookahead_threads=2/sliced_threads=0/nr=0/decimate=0/interlaced=0/bluray_compat=0/constrained_intra=0/bframes=8/b_pyramid=2/b_adapt=2/b_bias=0/direct=3/weightb=1/open_gop=0/weightp=2/keyint=240/keyint_min=23/scenecut=40/intra_refresh=0/rc_lookahead=40/rc=2pass/mbtree=1/bitrate=6700/ratetol=1.0/qcomp=0.60/qpmin=0/qpmax=69/qpstep=4/cplxblur=20.0/qblur=0.5/ip_ratio=1.40/aq=1: 0.90
    Язык : French
    Default : Да
    Forced : Нет
    Аудио #1
    Идентификатор : 2
    Формат : AC-3
    Формат/Информация : Audio Coding 3
    Расширение режима : CM (complete main)
    Параметр Endianness формата : Big
    Идентификатор кодека : A_AC3
    Продолжительность : 2 ч. 1 м.
    Вид битрейта : Постоянный
    Битрейт : 256 Кбит/сек
    Каналы : 2 канала
    Расположение каналов : Front: L R
    Частота : 48, 0 КГц
    Битовая глубина : 16 бит
    Метод сжатия : С потерями
    Размер потока : 222 Мбайт (4%)
    Заголовок : AC3, 2 ch, 256 kbps - MVO (НТВ)
    Язык : Russian
    Default : Да
    Forced : Нет
    Аудио #2
    Идентификатор : 3
    Формат : AC-3
    Формат/Информация : Audio Coding 3
    Расширение режима : CM (complete main)
    Параметр Endianness формата : Big
    Идентификатор кодека : A_AC3
    Продолжительность : 2 ч. 1 м.
    Вид битрейта : Постоянный
    Битрейт : 256 Кбит/сек
    Каналы : 2 канала
    Расположение каналов : Front: L R
    Частота : 48, 0 КГц
    Битовая глубина : 16 бит
    Метод сжатия : С потерями
    Размер потока : 222 Мбайт (4%)
    Заголовок : AC3, 2 ch, 256 kbps - Original
    Язык : French
    Default : Нет
    Forced : Нет
    Меню
    00: 00: 00.000 : en: 00: 00: 00.000
    00: 10: 46.625 : en: 00: 10: 46.625
    00: 21: 03.333 : en: 00: 21: 03.333
    00: 28: 16.417 : en: 00: 28: 16.417
    00: 39: 50.542 : en: 00: 39: 50.542
    00: 48: 56.125 : en: 00: 48: 56.125
    01: 00: 52.833 : en: 01: 00: 52.833
    01: 12: 26.000 : en: 01: 12: 26.000
    01: 23: 33.583 : en: 01: 23: 33.583
    01: 29: 27.500 : en: 01: 29: 27.500
    01: 42: 50.417 : en: 01: 42: 50.417
    01: 52: 34.625 : en: 01: 52: 34.625

    Скриншоты для ознакомления




    Все одноименные релизы в Клубе
    Время раздачи: 24/7 до 5 скачавших (до появления первых 3-5 скачавших)


    Онлайн видео Приключения есть приключения



    Приключения есть приключения/Laventure, cest laventure (1972) BDRip [H.264/720p]
    Рейтинг →
     (голосов: 1, оценка 3/5, голосовать можно 1 раз )

    Другие торренты по теме:

  • Приключения есть приключения / Laventure, cest laventure (1972) DVDRip [H.264] скачать через торрент бесплатно


    • Комментарии (0):

      Информация

      Информация

        Посетители, находящиеся в группе Гости, не могут оставлять комментарии в данной новости.

        ↓ Меню




        ↓ Опрос

        Вы добавили сайт в закладки?
        Да
        Нет


        Top 10 за месяц (Фильмы)