.
Авторизация | Регистрация
Хочешь лучшие торренты? Добавь свой email!
Добавить

Торрент скачать бесплатно

» » Живой (2017) SATRip (сезон 1, серии 1-2 из 16) (обновляемая) торрент скачать бесплатно


    Живой (2017) SATRip (сезон 1, серии 1-2 из 16) (обновляемая) торрент скачать бесплатно

    Опубликовал: Админ | Дата: 3-04-2018, 05:00 | .torrent скачали: 0

    Живой (2017) SATRip (сезон 1, серии 1-2 из 16) (обновляемая)Производство: Россия
    Жанр: детектив
    Режиссер: Михаил Кабанов

    Актеры
    Кирилл Кяро, Агата Муцениеце, Маруся Зыкова, Диана Пожарская, Александр Хошабаев, Александр Робак, Павел Прилучный, Николай Козак, Мария Свирид, Петар Зекавица

    Описание

    Журналист популярного интернет-издания Олег Сорокин нападает на след могущественного синдиката, промышляющего убийствами самых богатых людей страны. Но проблема в том, что никто не верит в его теорию заговоров. Вычислив очередную жертву — банкира Лядова, Олег пытается предупредить его о грозящей опасности, но тщетно. Лядова взрывают в собственной машине. Олег продолжает расследование с удвоенной силой и убеждается, что в смерти банкира всё очень неоднозначно. А вскоре и сам журналист становится мишенью таинственной преступной организации.

    Возраст: 16+ (зрителям, достигшим 16 лет)
    Дата российской премьеры: 2 апреля 2018
    Продолжительность: ~00: 45: 00 серия
    Качество видео: SATRip
    Видео: Xvid, 720x304, ~1650 Kbps
    Аудио: MP3, 2 ch, 192 Kbps

    Общее
    Полное имя : D: Живой (2017)Серия 01.avi
    Формат : AVI
    Формат/Информация : Audio Video Interleave
    Размер файла : 589 Мбайт
    Продолжительность : 44 м. 30 с.
    Общий поток : 1851 Кбит/сек
    Программа кодирования : VirtualDubMod 1.5.10.3 |www.virtualdub-fr.org|| (build 2550/release)
    Библиотека кодирования : VirtualDubMod build 2550/release
    Видео
    Идентификатор : 0
    Формат : MPEG-4 Visual
    Профиль формата : Advanced Simple@L5
    Настройки формата : BVOP1/Custom Matrix
    Параметр BVOP формата : 1
    Параметр QPel формата : Нет
    Параметр GMC формата : Без точки перехода
    Параметр матрицы формата : Выборочная
    Идентификатор кодека : XVID
    Идентификатор кодека/Подсказка : XviD
    Продолжительность : 44 м. 30 с.
    Битрейт : 1650 Кбит/сек
    Ширина : 720 пикселей
    Высота : 304 пикселя
    Соотношение сторон : 2, 35: 1
    Частота кадров : 25, 000 кадров/сек
    Цветовое пространство : YUV
    Субдискретизация насыщенности : 4: 2: 0
    Битовая глубина : 8 бит
    Тип развёртки : Прогрессивная
    Метод сжатия : С потерями
    Бит/(Пиксели*Кадры) : 0.301
    Размер потока : 525 Мбайт (89%)
    Библиотека кодирования : XviD 1.2.1 (UTC 2008-12-04)
    Аудио
    Идентификатор : 1
    Формат : MPEG Audio
    Версия формата : Version 1
    Профиль формата : Layer 3
    Настройки формата : Joint stereo/MS Stereo
    Идентификатор кодека : 55
    Идентификатор кодека/Подсказка : MP3
    Продолжительность : 44 м. 30 с.
    Вид битрейта : Постоянный
    Битрейт : 192 Кбит/сек
    Каналы : 2 канала
    Частота : 48, 0 КГц
    Частота кадров : 41, 667 кадра/сек (1152 SPF)
    Метод сжатия : С потерями
    Размер потока : 61, 1 Мбайт (10%)
    Выравнивание : Соединение по промежуткам
    Продолжительность промежутка : 40 мс. (1, 00 видеокадр)
    Время предзагрузки промежутка : 504 мс.
    Библиотека кодирования : LAME3.99r
    Настройки программы : -m j -V 4 -q 2 -lowpass 18.6 -b 192


    Онлайн видео Живой (2017) SATRip (сезон любимого сериала 1, серии 1



    Живой (2017) SATRip (сезон 1, серии 1-2 из 16) (обновляемая)
    Рейтинг →
     (голосов: 1, оценка 3/5, голосовать можно 1 раз )

    Другие торренты по теме:

  • NHK. Мир живой природы VI (Чудеса природы) (серия 6 из 13) / Nature Wonder Land VI (2012) HDTVRip
  • NHK. Мир живой природы VI (Чудеса природы) (серия 4 из 13) / Nature Wonder Land VI (2012) HDTVRip
  • NHK. Мир живой природы VI / Nature Wonder Land VI (2012) HDTVRip [H.264 / 720p] (1-11 серия из 13) скачать через торрент бесплатно
  • Живой Высоцкий (2011) HDTV [1080i] скачать через торрент бесплатно
  • Анатолий Герасимов (Anatole Gerasimov) - Живой Ракурс (Angle Of Living) (2012) 2CD[FLAC|Lossless]<Jazz, Post-Bop, Hard Bop> скачать через торрент бесплатно
  • Лев Толстой | Живой труп (1976) [MP3] скачать через торрент бесплатно
  • Смертельно живой (2015) WEB-DL [H.264 / 1080p-LQ] скачать через торрент бесплатно
  • Смертельно живой (2015) WEB-DLRip скачать через торрент бесплатно


    • Комментарии (0):

      Информация

      Информация

        Посетители, находящиеся в группе Гости, не могут оставлять комментарии в данной новости.

        ↓ Меню




        ↓ Опрос

        Вы добавили сайт в закладки?
        Да
        Нет


        Top 10 за месяц (Фильмы)