.
Авторизация | Регистрация
Хочешь лучшие торренты? Добавь свой email!
Добавить

Торрент скачать бесплатно

» » Падмавати / Padmaavat (2018) WEB-DLRip [AD] торрент скачать бесплатно


    Падмавати / Padmaavat (2018) WEB-DLRip [AD] торрент скачать бесплатно

    Опубликовал: Админ | Дата: 3-04-2018, 05:00 | .torrent скачали: 0

    Падмавати / Padmaavat (2018) WEB-DLRip [AD]Производство: Индия/Bhansali Productions, Viacom18 Motion Pictures
    Жанр: Драма, Мелодрама, История
    Режиссер: Санджай Лила Бхансали
    Продюсер: Ajit Andhare, Санджай Лила Бхансали, Шобха Сант

    Актеры
    Дипика Падукон, Ануприя Гоенка, Ранвир Сингх, Шахид Капур, Адити Рао Хидари, Джим Сарбх, Раза Мурад, Шархан Сингх, Манджит Сингх, Падмавати Рао

    Описание

    1303 год. Могущественный султан Алауддин Чирджи, завоевавший половину Индии, поддается сладким речам изгнанного из Читторгарха, что его могущество только будет расти, если рядом с ним будет красавица Падмавати, жена правителя Раваны Сингха. С этого момента султан становится одержим идеей захватить Падмавати. Он приводит свои войска к стенам крепости Читторгарх и обещает её правителю не разрушать город, если тот отдаст ему собственную жену.

    Мировая премьера: 25 января 2018
    Релиз от: Синема УС
    Продолжительность: 02: 45: 07
    Качество видео: WEB-DLRip
    Перевод: Многоголосый закадровый
    Субтитры: отсутствуют
    Реклама: присутствуют аудио и видео вставки рекламы
    Видео: Xvid, 720x304, ~1048 Kbps
    Аудио: AC3, 2 ch, 128 Kbps

    Общее
    Полное имя : J: Padmavati.2018.P.WEB-DLRip.avi
    Формат : AVI
    Формат/Информация : Audio Video Interleave
    Размер файла : 1, 37 Гбайт
    Продолжительность : 2 ч. 45 м.
    Общий поток : 1185 Кбит/сек
    Программа кодирования : VirtualDubMod 1.5.10.2 (build 2540/release)
    Библиотека кодирования : VirtualDubMod build 2540/release
    Видео
    Идентификатор : 0
    Формат : MPEG-4 Visual
    Профиль формата : Advanced Simple@L5
    Параметр BVOP формата : 2
    Параметр QPel формата : Нет
    Параметр GMC формата : Без точки перехода
    Параметр матрицы формата : Default (MPEG)
    Идентификатор кодека : XVID
    Идентификатор кодека/Подсказка : XviD
    Продолжительность : 2 ч. 45 м.
    Битрейт : 1048 Кбит/сек
    Ширина : 720 пикселей
    Высота : 304 пикселя
    Соотношение сторон : 2, 35: 1
    Частота кадров : 23, 976 (24000/1001) кадра/сек
    Цветовое пространство : YUV
    Субдискретизация насыщенности : 4: 2: 0
    Битовая глубина : 8 бит
    Тип развёртки : Прогрессивная
    Метод сжатия : С потерями
    Бит/(Пиксели*Кадры) : 0.200
    Размер потока : 1, 21 Гбайт (88%)
    Библиотека кодирования : XviD 1.2.1 (UTC 2008-12-04)
    Аудио
    Идентификатор : 1
    Формат : AC-3
    Формат/Информация : Audio Coding 3
    Расширение режима : CM (complete main)
    Параметр Endianness формата : Big
    Идентификатор кодека : 2000
    Продолжительность : 2 ч. 45 м.
    Вид битрейта : Постоянный
    Битрейт : 128 Кбит/сек
    Каналы : 2 канала
    Расположение каналов : Front: L R
    Частота : 48, 0 КГц
    Частота кадров : 31, 250 кадров/сек (1536 spf)
    Метод сжатия : С потерями
    Размер потока : 151 Мбайт (11%)
    Выравнивание : Разделение по промежуткам
    Продолжительность промежутка : 42 мс. (1, 00 видеокадр)
    Время предзагрузки промежутка : 500 мс.

    Скриншоты для ознакомления



    Все одноименные релизы в Клубе
    Время раздачи: Пн-Пт с 18: 00 до 22: 00, Вс с 09: 00 до 22: 30 (до появления первых 3-5 скачавших)


    Онлайн видео Падмавати



    Падмавати/Padmaavat (2018) WEB-DLRip [AD]
    Рейтинг →
     (голосов: 1, оценка 4/5, голосовать можно 1 раз )

    Другие торренты по теме:



      Комментарии (0):

      Информация

      Информация

        Посетители, находящиеся в группе Гости, не могут оставлять комментарии в данной новости.

        ↓ Меню




        ↓ Опрос

        Вы добавили сайт в закладки?
        Да
        Нет


        Top 10 за месяц (Фильмы)