.
Авторизация | Регистрация
Хочешь лучшие торренты? Добавь свой email!
Добавить

Торрент скачать бесплатно

» » Я – легенда / I Am Legend (2007) HDRip [H.264] торрент скачать бесплатно


    Я – легенда / I Am Legend (2007) HDRip [H.264] торрент скачать бесплатно

    Опубликовал: Админ | Дата: 3-04-2018, 05:00 | .torrent скачали: 0

    Я – легенда / I Am Legend (2007) HDRip [H.264]Производство: США/3 Arts Entertainment, Heyday Films, Original Film, Overbrook Entertainment, Village Roadshow Pictures, Warner Bros. Pictures, Weed Road Pictures
    Жанр: Ужасы, Фантастика, Триллер, Драма
    Режиссер: Френсис Лоуренс
    Продюсер: Акива Голдсман, Дэвид Хейман, Джеймс Ласситер

    Актеры
    Уилл Смит, Алиси Брага, Чарли Тахэн, Салли Ричардсон-Уитфилд, Уиллоу Смит, Даррел Фостер, Эйприл Грэйс, Дэш Майок, Джоанна Нумата, Abbey и др.

    Описание

    Адаптация одноименного романа Ричарда Мэтисона о неизвестном вирусе, унесшем жизни половины населения земного шара, а остальную половину превратившего в вампиров. Сюжет строится вокруг единственного уцелевшего человека с необъяснимым иммунитетом, ночами держащего бесконечную осаду упырей, а днем пытающегося найти противоядие и выяснить причины эпидемии.

    Возраст: 16+ (зрителям, достигшим 16 лет)
    Рейтинг MPAA: PG-13 (детям до 13 лет просмотр нежелателен)
    Релиз от: winchester00100010
    Продолжительность: 01: 40: 32
    Качество видео: HDRip
    Перевод: Дублированный
    Субтитры: отсутствуют
    Видео: AVC/H.264, 1024х426 (2.40: 1), ~2667 kbps, 0.255 bit/pixel
    Аудио: Русский AC3, 6 ch, 448 kbps

    General
    Unique ID : 201586213123221479108169573770660486672 (0x97A817A90807877B9C7C6E3B0C011E10)
    Complete name : D: Торрент файлы раздач вместе с фильмамиI.Am.Legend.2007.HDRip-AVC.mkv
    Format : Matroska
    Format version : Version 2
    File size : 2.19 GiB
    Duration : 1 h 40 min
    Overall bit rate : 3 115 kb/s
    Encoded date : UTC 2018-04-01 13: 58: 27
    Writing application : mkvmerge v5.8.0 (\'No Sleep/Pillow\') built on Sep 2 2012 15: 37: 04
    Writing library : libebml v1.2.3 + libmatroska v1.3.0
    Video
    ID : 1
    Format : AVC
    Format/Info : Advanced Video Codec
    Format profile : High@L4.1
    Format settings : CABAC/12 Ref Frames
    Format settings, CABAC : Yes
    Format settings, ReFrames : 12 frames
    Codec ID : V_MPEG4/ISO/AVC
    Duration : 1 h 40 min
    Bit rate : 2 667 kb/s
    Width : 1 024 pixels
    Height : 426 pixels
    Display aspect ratio : 2.40: 1
    Frame rate mode : Constant
    Frame rate : 23.976 (24000/1001) FPS
    Color space : YUV
    Chroma subsampling : 4: 2: 0
    Bit depth : 8 bits
    Scan type : Progressive
    Bits/(Pixel*Frame) : 0.255
    Stream size : 1.83 GiB (84%)
    Writing library : x264 core 155 r2901 7d0ff22
    Encoding settings : cabac=1/ref=12/deblock=1: -3: -3/analyse=0x3: 0x113/me=umh/subme=9/psy=1/psy_rd=1.00: 0.00/mixed_ref=1/me_range=24/chroma_me=1/trellis=2/8x8dct=1/cqm=0/deadzone=21, 11/fast_pskip=0/chroma_qp_offset=-2/threads=12/lookahead_threads=1/sliced_threads=0/nr=0/decimate=0/interlaced=0/bluray_compat=0/constrained_intra=0/bframes=6/b_pyramid=2/b_adapt=2/b_bias=0/direct=3/weightb=1/open_gop=0/weightp=2/keyint=240/keyint_min=23/scenecut=40/intra_refresh=0/rc_lookahead=40/rc=2pass/mbtree=0/bitrate=2667/ratetol=1.0/qcomp=0.60/qpmin=0/qpmax=69/qpstep=4/cplxblur=20.0/qblur=0.5/vbv_maxrate=14000/vbv_bufsize=14000/nal_hrd=none/filler=0/ip_ratio=1.40/pb_ratio=1.30/aq=1: 1.00
    Default : Yes
    Forced : No
    Statistics Tags Issue : mkvmerge v21.0.0 (\'Tardigrades Will Inherit The Earth\') 64-bit 2018-04-01 13: 47: 24/mkvmerge v5.8.0 (\'No Sleep/Pillow\') built on Sep 2 2012 15: 37: 04 2018-04-01 13: 58: 27
    FromStats_BitRate : 2665500
    FromStats_Duration : 01: 40: 31.609000000
    FromStats_FrameCount : 144614
    FromStats_StreamSize : 2009657465
    Audio
    ID : 2
    Format : AC-3
    Format/Info : Audio Coding 3
    Codec ID : A_AC3
    Duration : 1 h 40 min
    Bit rate mode : Constant
    Bit rate : 448 kb/s
    Channel(s) : 6 channels
    Channel positions : Front: L C R, Side: L R, LFE
    Sampling rate : 48.0 kHz
    Frame rate : 31.250 FPS (1536 SPF)
    Bit depth : 16 bits
    Compression mode : Lossy
    Stream size : 322 MiB (14%)
    Service kind : Complete Main
    Default : Yes
    Forced : No

    Скриншоты для ознакомления



    Все одноименные релизы в Клубе
    Время раздачи: с 12: 00 до 00: 00 по МСК (до появления первых 3-5 скачавших), так же могу уйти с раздачи на некоторое время в любой момент


    Онлайн видео Я – легенда



    Я – легенда/I Am Legend (2007) HDRip [H.264]
    Рейтинг →
     (голосов: 1, оценка 3/5, голосовать можно 1 раз )

    Другие торренты по теме:

  • Легенда / Legend (1985) BDRip [1080p] [Directors Cut]
  • Легенда / Legend (2015) WEBRip [H.264 / 1080p] [Трейлер] скачать через торрент бесплатно
  • Легенда / Legend (2015) TS [H.264 / 720p-LQ] скачать через торрент бесплатно
  • Легенда / Legend (2015) TS скачать через торрент бесплатно
  • Легенда / Legend (2015) DVDScr [Line] скачать через торрент бесплатно
  • Легенда / Legend (2015) DVDRip скачать через торрент бесплатно
  • Легенда / Legend (2015) WEBRip [H.264 / 720p-LQ] [Line]
  • Легенда / Legend (2015) WEBRip [H.264 / 1080p-LQ] [Line]


    • Комментарии (0):

      Информация

      Информация

        Посетители, находящиеся в группе Гости, не могут оставлять комментарии в данной новости.

        ↓ Меню




        ↓ Опрос

        Вы добавили сайт в закладки?
        Да
        Нет


        Top 10 за месяц (Фильмы)