.
Авторизация | Регистрация
Хочешь лучшие торренты? Добавь свой email!
Добавить

Торрент скачать бесплатно

  • support: webmaster@btracker.org
» » Жестокий прокурор / A Violent Prosecutor / Geom-sa-oe-jeon (2016) BDRip [H.265 / 1080p-LQ] [10-bit] торрент скачать бесплатно


    Жестокий прокурор / A Violent Prosecutor / Geom-sa-oe-jeon (2016) BDRip [H.265 / 1080p-LQ] [10-bit] торрент скачать бесплатно

    Опубликовал: Админ | Дата: 3-04-2018, 05:00 | .torrent скачали: 0

    Жестокий прокурор / A Violent Prosecutor / Geom-sa-oe-jeon (2016) BDRip [H.265 / 1080p-LQ] [10-bit]Производство: Корея Южная/Moonlight Film, Sanai Pictures
    Жанр: Криминал, Детектив
    Режиссер: Ли Иль-хён
    Продюсер: Юн Джон-бин, Хан Джэ-док

    Актеры
    Хван Джон-мин, Кан Дон-вон, Чу Джин-мо, Ким Бён-ок, Ким Ын-су, Ким Хон-пха, Ким Вон-хэ, Ли Сон-мин, Пак Чи-хван, Пак Сон-ун

    Описание

    Прокурор Пён Джэ-ук чтит закон. А так же считает, что если преступник не сознаётся, то надо ему помочь сознаться. В этом деле все средства хороши, и небольшие побои лишними не будут. Вот однажды он так слегка попугал подозреваемого и оставил его на ночь в комнате допросов, а наутро бедолага был уже мёртв. Джэ-ук едет в места не столь отдалённые на 15 лет, но он уверен, что его подставили, и найдет способ восстановить справедливость.

    Релиз от: Goor80
    Продолжительность: 02: 06: 21
    Качество видео: BDRip
    Перевод: Двуголосый закадровый, любительский (Храм Дорам)
    Субтитры: отсутствуют
    Видео: HEVC/H.265, 1920x800, ~6254 Kbps
    Аудио 1: AC3, 2 ch, 192 Kbps (русский)
    Аудио 2: AC3, 6 ch, 448 Kbps (корейский)

    Общее
    Уникальный идентификатор : 112664807033909470342231770333555473644 (0x54C273DA9CF5E58E66126D2A9F643CEC)
    Полное имя : E: VideoЖестокий прокурор (A Violent Prosecutor).mkv
    Формат : Matroska
    Версия формата : Version 4/Version 2
    Размер файла : 6, 09 Гбайт
    Продолжительность : 2 ч. 6 м.
    Общий поток : 6897 Кбит/сек
    Название фильма : Жестокий прокурор/Агрессивный прокурор/Нерассказанная история прокурора/A Violent Prosecutor/Geomsawejeon
    Дата выпуска : 2016
    Дата кодирования : UTC 2018-04-02 05: 02: 17
    Программа кодирования : mkvmerge v20.0.0 (\'I Am The Sun\') 64-bit
    Библиотека кодирования : libebml v1.3.5 + libmatroska v1.4.8
    Авторское право : Encoded by Goor80
    Обложка : Yes
    Attachments : cover.jpg
    Released by : Buba5473 for NNM-Club
    Видео
    Идентификатор : 1
    Формат : HEVC
    Формат/Информация : High Efficiency Video Coding
    Профиль формата : Main10@L4.1@Main
    Идентификатор кодека : V_MPEGH/ISO/HEVC
    Продолжительность : 2 ч. 6 м.
    Битрейт : 6254 Кбит/сек
    Ширина : 1920 пикселей
    Высота : 800 пикселей
    Соотношение сторон : 2, 40: 1
    Режим частоты кадров : Постоянный
    Частота кадров : 23, 976 (24000/1001) кадра/сек
    Цветовое пространство : YUV
    Субдискретизация насыщенности : 4: 2: 0
    Битовая глубина : 10 бит
    Бит/(Пиксели*Кадры) : 0.170
    Размер потока : 5, 52 Гбайт (91%)
    Default : Да
    Forced : Нет
    Цветовой диапазон : Limited
    Аудио #1
    Идентификатор : 2
    Формат : AC-3
    Формат/Информация : Audio Coding 3
    Параметр Endianness формата : Big
    Идентификатор кодека : A_AC3
    Продолжительность : 2 ч. 6 м.
    Вид битрейта : Постоянный
    Битрейт : 192 Кбит/сек
    Каналы : 2 канала
    Расположение каналов : Front: L R
    Частота : 48, 0 КГц
    Частота кадров : 31, 250 кадров/сек (1536 spf)
    Битовая глубина : 16 бит
    Метод сжатия : С потерями
    Размер потока : 174 Мбайт (3%)
    Заголовок : Перевод: Любительский (двухголосый закадровый) Храм Дорам
    Язык : Russian
    ServiceKind/String : Complete Main
    Default : Да
    Forced : Нет
    Аудио #2
    Идентификатор : 3
    Формат : AC-3
    Формат/Информация : Audio Coding 3
    Параметр Endianness формата : Big
    Идентификатор кодека : A_AC3
    Продолжительность : 2 ч. 6 м.
    Вид битрейта : Постоянный
    Битрейт : 448 Кбит/сек
    Каналы : 6 каналов
    Расположение каналов : Front: L C R, Side: L R, LFE
    Частота : 48, 0 КГц
    Частота кадров : 31, 250 кадров/сек (1536 spf)
    Битовая глубина : 16 бит
    Метод сжатия : С потерями
    Размер потока : 405 Мбайт (6%)
    Язык : Korean
    ServiceKind/String : Complete Main
    Default : Нет
    Forced : Нет
    Меню
    00: 00: 00.000 : en: 00: 00: 00.000
    00: 05: 05.971 : en: 00: 05: 05.971
    00: 12: 58.193 : en: 00: 12: 58.193
    00: 18: 07.126 : en: 00: 18: 07.126
    00: 28: 29.457 : en: 00: 28: 29.457
    00: 38: 31.934 : en: 00: 38: 31.934
    00: 47: 45.737 : en: 00: 47: 45.737
    00: 55: 23.277 : en: 00: 55: 23.277
    01: 02: 25.782 : en: 01: 02: 25.782
    01: 13: 19.353 : en: 01: 13: 19.353
    01: 18: 53.811 : en: 01: 18: 53.811
    01: 29: 52.970 : en: 01: 29: 52.970
    01: 36: 26.572 : en: 01: 36: 26.572
    01: 45: 10.052 : en: 01: 45: 10.052
    02: 00: 19.337 : en: 02: 00: 19.337
    02: 02: 43.521 : en: 02: 02: 43.521
    XMP
    Xmp.video.FileName : E: VideoЖестокий прокурор (A Violent Prosecutor).mkv
    Xmp.video.FileSize : -9.53674e-007
    Xmp.video.MimeType : video/matroska
    Xmp.video.EBMLVersion : 1
    Xmp.video.EBMLReadVersion : 1
    Xmp.video.DocType : matroska
    Xmp.video.DocTypeVersion : 4
    Xmp.video.DocTypeReadVersion : 2
    Xmp.video.TimecodeScale : 0.001
    Xmp.video.MuxingApp : libebml v1.3.5 + libmatroska v1.4.8
    Xmp.video.WritingApp : mkvmerge v20.0.0 (\'I Am The Sun\') 64-bit
    Xmp.video.Duration : 7581282
    Xmp.video.DateUTC : 544338137
    Xmp.video.Title : Жестокий прокурор/Агрессивный прокурор/Нерассказанная история прокурора/A Violent Prosecutor/Geomsawejeon
    Xmp.video.TotalStream : 7
    Xmp.video.TrackLacing : No
    Xmp.video.Codec : V_MPEGH/ISO/HEVC
    Xmp.video.FrameRate : 23.976
    Xmp.video.TrackLang : und
    Xmp.video.Width : 1920
    Xmp.video.Height : 800
    Xmp.audio.Compressor : A_AC3
    Xmp.audio.DefaultDuration : 32000
    Xmp.audio.TrackLang : kor
    Xmp.video.TrackName : Перевод: ЛюбитеРСЊСЃРєРёР№ (РґРІСѓС…РіРѕРосый закадровый) Храм Дорам
    Xmp.audio.SampleRate : 48000
    Xmp.audio.ChannelType : Stereo
    Xmp.audio.DefaultOn : No
    Xmp.video.AttachFileName : cover.jpg
    Xmp.video.AttachFileMIME : image/jpeg
    Xmp.video.AttachFileUID : 7902363215881138562
    Xmp.video.AspectRatio : 2.4
    H.265/HEVC (High Efficiency Video Coding) - это новый стандарт кодирования видео.
    *Рипы в фомате HEVC, в настоящее время не поддерживается большинством аппаратных проигрывателей.
    *Для корректного воспроизведения может потребоваться обновление ПО.
    *Стандарт H.265/HEVC является логическим продолжением стандарта H.264/AVC (Advanced Video Coding), и характеризуется более эффективными алгоритмами сжатия, а также поддержкой высокого разрешения вплоть до 8K UHD (8192x4320). Первая версия стандарта H.265 была опубликована в начале 2013 года.
    Любителям решения из коробки - установить последнюю версию на выбор:
    Media Player Classic - Black Edition (MPC-BE)
    VLC media player
    Daum Pot Player
    GOM Media Player
    Любителям WMP и других плееров, использующих по умолчанию для воспроизведения системные кодеки+сплитеры - установить K-Lite Codec Pack версии 10.1.0 и выше.
    Любимые плееры, не использующии по умолчанию для воспроизведения системные кодеки+сплитеры, нужно перенастроить на использование оных.

    Скриншоты для ознакомления



    Все одноименные релизы в Клубе
    Время раздачи: с 11: 00 до 21: 00 по Новосибирску (UTC +7) (до появления первых 3-5 скачавших)


    Онлайн видео Жестокий прокурор



    Жестокий прокурор/A Violent Prosecutor/Geom-sa-oe-jeon (2016) BDRip [H.265/1080p-LQ] [10-bit]
    Рейтинг →
     (голосов: 1, оценка 4/5, голосовать можно 1 раз )

    Другие торренты по теме:

  • Жестокий романс. Музыка из кинофильма (1984) [FLAC|Lossless]<ретро, soundtrack>
  • Жестокий ринг / Victor Young Perez (2014) HDRip скачать через торрент бесплатно
  • Жестокий романс (1984) DVDRip [H.264] скачать через торрент бесплатно
  • Ника Батхен и др. | Этот добрый жестокий мир [антология] (2014) [FB2] скачать через торрент бесплатно
  • Самый жестокий год / A Most Violent Year (2014) BDRip [720p] [EN] скачать через торрент бесплатно
  • Самый жестокий год / A Most Violent Year (2014) BDRip [1080p] [EN] скачать через торрент бесплатно
  • Самый жестокий год / A Most Violent Year (2014) HDRip скачать через торрент бесплатно
  • Жестокий ринг / Victor Young Perez (2013) HDRip скачать через торрент бесплатно


    • Комментарии (0):

      Информация

      Информация

        Посетители, находящиеся в группе Гости, не могут оставлять комментарии в данной новости.

        ↓ Меню




        ↓ Опрос

        Вы добавили сайт в закладки?
        Да
        Нет


        Top 10 за месяц (Фильмы)