.
Авторизация | Регистрация
Хочешь лучшие торренты? Добавь свой email!
Добавить

Торрент скачать бесплатно

  • support: webmaster@btracker.org
» » Дело №39 / Case 39 (2009) BDRip [H.264 / 1080p-LQ] торрент скачать бесплатно


    Дело №39 / Case 39 (2009) BDRip [H.264 / 1080p-LQ] торрент скачать бесплатно

    Опубликовал: Админ | Дата: 3-04-2018, 05:00 | .torrent скачали: 0

    Дело №39 / Case 39 (2009) BDRip [H.264 / 1080p-LQ]Производство: США, Канада/Paramount Vantage, Misher Films, Anonymous Content
    Жанр: Ужасы, Триллер
    Режиссер: Кристиан Альварт

    Актеры
    Рене Зеллвегер, Джоделль Ферланд, Иэн МакШейн, Брэдли Купер, Каллум Кит Ренни, Адриан Лестер, Керри О’Мэлли, Синтия Стивенсон, Александр Конти, Фил Кабрита

    Описание

    Главная героиня — социальный работник Эмили, которая считается настоящим специалистом в семейных вопросах. У неё нет личной жизни и своё призвание она видит в том, чтобы помогать детям, попавшим в сложные жизненные ситуации. Один из обычных, казалось бы, вызовов позволяет Эмили спасти от беды маленькую девочку. В её руки попадает дело N39 о Лилит, которая боится своих родителей. Сжалившись над ребёнком, Эмили берёт девочку к себе. Сначала всё идёт прекрасно, но несколько недель спустя начинаются необъяснимые и страшные события…

    Возраст: 16+ (зрителям, достигшим 16 лет)
    Рейтинг MPAA: R (лицам до 17 лет обязательно присутствие взрослого)
    Релиз от: SanLex
    Продолжительность: 01: 49: 25
    Качество видео: BDRip
    Перевод: Дублированный (BD CEE)
    Субтитры: Русские, английские
    Видео: AVC/H.264, 1920x816, ~4 795 kb/s
    Аудио #01: AC3, 6 ch, 448 Kbps - Русский
    Аудио #02: AC3, 6 ch, 448 Kbps - Английский

    General
    Unique ID : 196443196189871320578043194878722688156 (0x93C99559223459E7999D91D6B129C49C)
    Complete name : Дело N39 - Case 39 (2009) BDRip.mkv
    Format : Matroska
    Format version : Version 2
    File size : 4.37 GiB
    Duration : 1 h 49 min
    Overall bit rate : 5 715 kb/s
    Encoded date : UTC 2018-04-02 07: 15: 33
    Writing application : mkvmerge v7.8.0 (\'River Man\') 32bit built on Apr 3 2015 12: 11: 22
    Writing library : libebml v1.3.1 + libmatroska v1.4.2
    Video
    ID : 1
    Format : AVC
    Format/Info : Advanced Video Codec
    Format profile : High@L4.1
    Format settings : CABAC/4 Ref Frames
    Format settings, CABAC : Yes
    Format settings, RefFrames : 4 frames
    Codec ID : V_MPEG4/ISO/AVC
    Duration : 1 h 49 min
    Bit rate : 4 795 kb/s
    Width : 1 920 pixels
    Height : 816 pixels
    Display aspect ratio : 2.35: 1
    Frame rate mode : Constant
    Frame rate : 23.976 (24000/1001) FPS
    Color space : YUV
    Chroma subsampling : 4: 2: 0
    Bit depth : 8 bits
    Scan type : Progressive
    Bits/(Pixel*Frame) : 0.128
    Stream size : 3.60 GiB (82%)
    Title : Дело N39 - Case 39 (2009)
    Writing library : x264 core 152 r2851 ba24899
    Encoding settings : cabac=1/ref=4/deblock=1: -1: -1/analyse=0x3: 0x113/me=umh/subme=10/psy=1/psy_rd=1.00: 0.00/mixed_ref=1/me_range=32/chroma_me=1/trellis=2/8x8dct=1/cqm=0/deadzone=21, 11/fast_pskip=0/chroma_qp_offset=-2/threads=6/lookahead_threads=1/sliced_threads=0/nr=0/decimate=1/interlaced=0/bluray_compat=0/constrained_intra=0/bframes=8/b_pyramid=2/b_adapt=2/b_bias=0/direct=3/weightb=1/open_gop=0/weightp=2/keyint=250/keyint_min=23/scenecut=40/intra_refresh=0/rc_lookahead=60/rc=2pass/mbtree=0/bitrate=4795/ratetol=1.0/qcomp=0.60/qpmin=0/qpmax=69/qpstep=4/cplxblur=20.0/qblur=0.5/vbv_maxrate=14000/vbv_bufsize=14000/nal_hrd=none/filler=0/ip_ratio=1.40/pb_ratio=1.30/aq=1: 1.00
    Language : English
    Default : Yes
    Forced : No
    Audio #1
    ID : 2
    Format : AC-3
    Format/Info : Audio Coding 3
    Codec ID : A_AC3
    Duration : 1 h 49 min
    Bit rate mode : Constant
    Bit rate : 448 kb/s
    Channel(s) : 6 channels
    Channel positions : Front: L C R, Side: L R, LFE
    Sampling rate : 48.0 kHz
    Frame rate : 31.250 FPS (1536 SPF)
    Bit depth : 16 bits
    Compression mode : Lossy
    Stream size : 351 MiB (8%)
    Language : Russian
    Service kind : Complete Main
    Default : Yes
    Forced : No
    Audio #2
    ID : 3
    Format : AC-3
    Format/Info : Audio Coding 3
    Codec ID : A_AC3
    Duration : 1 h 49 min
    Bit rate mode : Constant
    Bit rate : 448 kb/s
    Channel(s) : 6 channels
    Channel positions : Front: L C R, Side: L R, LFE
    Sampling rate : 48.0 kHz
    Frame rate : 31.250 FPS (1536 SPF)
    Bit depth : 16 bits
    Compression mode : Lossy
    Stream size : 351 MiB (8%)
    Language : English
    Service kind : Complete Main
    Default : No
    Forced : No
    Text #1
    ID : 4
    Format : PGS
    Muxing mode : zlib
    Codec ID : S_HDMV/PGS
    Codec ID/Info : Picture based subtitle format used on BDs/HD-DVDs
    Title : rus (Full)
    Language : Russian
    Default : No
    Forced : No
    Text #2
    ID : 5
    Format : PGS
    Muxing mode : zlib
    Codec ID : S_HDMV/PGS
    Codec ID/Info : Picture based subtitle format used on BDs/HD-DVDs
    Title : eng (Full)
    Language : English
    Default : No
    Forced : No

    x264 info: frame I: 1145 Avg QP: 18.65 size: 93643 PSNR Mean Y: 45.14 U: 47.82 V: 50.26 Avg: 46.06 Global: 45.50
    x264 info: frame P: 32648 Avg QP: 19.63 size: 45231 PSNR Mean Y: 44.19 U: 47.92 V: 50.46 Avg: 45.27 Global: 44.48
    x264 info: frame B: 123623 Avg QP: 22.06 size: 18492 PSNR Mean Y: 42.97 U: 47.44 V: 50.29 Avg: 44.15 Global: 43.43

    Скриншоты для ознакомления



    Все одноименные релизы в Клубе
    Время раздачи: 24/7 (до появления первых 3-5 скачавших)


    Онлайн видео Дело №39



    Дело №39/Case 39 (2009) BDRip [H.264/1080p-LQ]
    Рейтинг →
     (голосов: 1, оценка 5/5, голосовать можно 1 раз )

    Другие торренты по теме:

  • Kindaichi Shnen no Jikenbo / Kindaichi Case Files / Дело ведёт юный детектив Киндаичи [1997, TV, 1-31 из 148] DVDRip 480p Raw
  • Enigma Agency: The Case of Shadows / Тайное агентство: Дело теней (2013) [Ru] Unofficial [Collectors Edition / Коллекционное издание] скачать через торрент бесплатно
  • Kindaichi Shounen no Jikenbo Returns / Kindaichi Case Files Returns / Дело ведёт юный детектив Киндаичи: Возвращение [2014, TV, 25] HDTVRip 720p raw+rus скачать через торрент бесплатно
  • Hana to Alice: Satsujin Jiken | The Case of Hana & Alice | Хана и Алиса: Дело об убийстве [2015, МV] BDrip 1080p raw скачать через торрент бесплатно
  • Dead Reckoning 3: The Crescent Case / Точный расчет 3: Дело Полумесяца (2015) [Ru] (1.00) Unofficial [Collectors Edition / Коллекционное издание]
  • NG: Титаник. Дело закрыто / Titanic. Case Closed (2012) HDTV [H.264 / 1080i]
  • Kindaichi Shnen no Jikenbo / Kindaichi Case Files / Дело ведёт юный детектив Киндаичи [1997, TV, 1-99 из 148] DVDRip 480p Raw
  • Дело копа-каннибала / Thought Crimes: The Case of the Cannibal Cop (2015) HDTVRip


    • Комментарии (0):

      Информация

      Информация

        Посетители, находящиеся в группе Гости, не могут оставлять комментарии в данной новости.

        ↓ Меню




        ↓ Опрос

        Вы добавили сайт в закладки?
        Да
        Нет


        Top 10 за месяц (Фильмы)