.
Авторизация | Регистрация
Хочешь лучшие торренты? Добавь свой email!
Добавить

Торрент скачать бесплатно

  • support: webmaster@btracker.org
» » Альфредо, Альфредо / Alfredo Alfredo (1972) DVDRip [H.264] торрент скачать бесплатно


    Альфредо, Альфредо / Alfredo Alfredo (1972) DVDRip [H.264] торрент скачать бесплатно

    Опубликовал: Админ | Дата: 3-04-2018, 05:00 | .torrent скачали: 0

    Альфредо, Альфредо / Alfredo Alfredo (1972) DVDRip [H.264]Производство: Италия, Франция/Francoriz Production, R.P.A. Cinematografica, Rizzoli Film S.p.a.
    Жанр: Мелодрама, Комедия
    Режиссер: Пьетро Джерми
    Продюсер: Гульельмо Колонна

    Актеры
    Дастин Хоффман, Стефания Сандрелли, Карла Гравина, Саро Урци, Дуилио Дель Прете, Луиджи Багетти, Ренцо Мариньяно, Даника Ла Лоджа, Клара Колозимо, Энцо Каннавале, Джанни Риццо, Лоредана Мартинес

    Описание

    Скромный банковский клерк Альфредо, которого покорила удивительная красота Марии Розы, женится на ней. И с этого дня его жизнь становится невыносимой: новоиспеченная супруга оказывается совершенно ненасытной в любви. Счастливое супружество на деле оборачивается тяжким физическим и нравственным испытанием.
    Мало того, что жена озабочена только сексом, она ещё и страшно ревнива, из-за её скандального характера он начинает терять друзей и превращается в раба любви. Однако, судьба преподносит ему подарок — он знакомится с Каролиной, полной противоположностью его супруги. У них завязывается бурный роман, и тут-то у Альфредо начинаются настоящие проблемы…

    Возраст: 12+ (зрителям, достигшим 12 лет)
    Рейтинг MPAA: R (лицам до 17 лет обязательно присутствие взрослого)
    Релиз от: Охрана (NNMCLUB)
    Продолжительность: 01: 47: 38
    Качество видео: DVDRip
    Перевод: Профессиональный (двуголосый закадровый)
    Субтитры: Русские
    Видео: AVC/H.264, 720x432, ~1810 Kbps
    Аудио 1: Русский, AC3, 2 ch, 192 Kbps, 48.0 kHz
    Аудио 2: Итальянский, AC3, 2 ch, 192 Kbps, 48.0 kHz

    Общее
    Уникальный идентификатор : 195448613864934390263286718027250341814 (0x930A08A752AC9B54A63CB3AC9A7117B6)
    Полное имя : F: DownloadsАльфредо, Альфредо. 1972. NNMCLUB.mkv
    Формат : Matroska
    Версия формата : Version 4/Version 2
    Размер файла : 1, 65 Гбайт
    Продолжительность : 1 ч. 47 м.
    Общий поток : 2196 Кбит/сек
    Дата кодирования : UTC 2018-04-01 12: 34: 53
    Программа кодирования : mkvmerge v7.9.0 (\'Birds\') 64bit
    Библиотека кодирования : libebml v1.3.1 + libmatroska v1.4.2
    Видео
    Идентификатор : 1
    Формат : AVC
    Формат/Информация : Advanced Video Codec
    Профиль формата : High@L4.1
    Настройки формата : CABAC/12 Ref Frames
    Параметр CABAC формата : Да
    Параметр RefFrames формата : 12 кадров
    Идентификатор кодека : V_MPEG4/ISO/AVC
    Продолжительность : 1 ч. 47 м.
    Битрейт : 1810 Кбит/сек
    Ширина : 720 пикселей
    Высота : 432 пикселя
    Соотношение сторон : 5: 3
    Режим частоты кадров : Постоянный
    Частота кадров : 23, 976 (24000/1001) кадра/сек
    Цветовое пространство : YUV
    Субдискретизация насыщенности : 4: 2: 0
    Битовая глубина : 8 бит
    Тип развёртки : Прогрессивная
    Бит/(Пиксели*Кадры) : 0.243
    Размер потока : 1, 36 Гбайт (82%)
    Заголовок : Alfredo, Alfredo
    Библиотека кодирования : x264 core 146 r2538 121396c
    Настройки программы : cabac=1/ref=12/deblock=1: -1: -1/analyse=0x3: 0x113/me=umh/subme=10/psy=1/psy_rd=1.00: 0.10/mixed_ref=1/me_range=32/chroma_me=1/trellis=2/8x8dct=1/cqm=0/deadzone=21, 11/fast_pskip=0/chroma_qp_offset=-3/threads=6/lookahead_threads=1/sliced_threads=0/nr=0/decimate=0/interlaced=0/bluray_compat=0/constrained_intra=0/bframes=7/b_pyramid=2/b_adapt=2/b_bias=0/direct=3/weightb=1/open_gop=0/weightp=2/keyint=250/keyint_min=25/scenecut=40/intra_refresh=0/rc_lookahead=60/rc=2pass/mbtree=1/bitrate=1810/ratetol=1.0/qcomp=0.60/qpmin=0/qpmax=69/qpstep=4/cplxblur=20.0/qblur=0.5/vbv_maxrate=14000/vbv_bufsize=14000/nal_hrd=none/filler=0/ip_ratio=1.40/aq=1: 1.00
    Язык : English
    Default : Да
    Forced : Нет
    Аудио #1
    Идентификатор : 2
    Формат : AC-3
    Формат/Информация : Audio Coding 3
    Идентификатор кодека : A_AC3
    Продолжительность : 1 ч. 47 м.
    Вид битрейта : Постоянный
    Битрейт : 192 Кбит/сек
    Каналы : 2 канала
    Расположение каналов : Front: L R
    Частота : 48, 0 КГц
    Частота кадров : 31, 250 кадров/сек (1536 SPF)
    Битовая глубина : 16 бит
    Метод сжатия : С потерями
    Размер потока : 148 Мбайт (9%)
    Заголовок : Двуголосый закадровый
    Язык : Russian
    ServiceKind/String : Complete Main
    Default : Да
    Forced : Нет
    Аудио #2
    Идентификатор : 3
    Формат : AC-3
    Формат/Информация : Audio Coding 3
    Идентификатор кодека : A_AC3
    Продолжительность : 1 ч. 47 м.
    Вид битрейта : Постоянный
    Битрейт : 192 Кбит/сек
    Каналы : 2 канала
    Расположение каналов : Front: L R
    Частота : 48, 0 КГц
    Частота кадров : 31, 250 кадров/сек (1536 SPF)
    Битовая глубина : 16 бит
    Метод сжатия : С потерями
    Размер потока : 148 Мбайт (9%)
    Заголовок : Оригинал
    Язык : Italian
    ServiceKind/String : Complete Main
    Default : Нет
    Forced : Нет
    Текст
    Идентификатор : 4
    Формат : UTF-8
    Идентификатор кодека : S_TEXT/UTF8
    Идентификатор кодека/Информация : UTF-8 Plain Text
    Продолжительность : 1 ч. 46 м.
    Битрейт : 110 бит/сек
    ElementCount : 1559
    Размер потока : 85, 5 Кбайт (0%)
    Заголовок : SRT
    Язык : Russian
    Default : Нет
    Forced : Нет

    Скриншоты для ознакомления




    Все одноименные релизы в Клубе
    Время раздачи: с 13: 00 до 01: 00 МСК, выходные круглосуточно (до появления первых 3-5 скачавших)


    Онлайн видео Альфредо, Альфредо



    Альфредо, Альфредо/Alfredo Alfredo (1972) DVDRip [H.264]
    Рейтинг →
     (голосов: 1, оценка 5/5, голосовать можно 1 раз )

    Другие торренты по теме:

  • Альфредо, Альфредо / Alfredo Alfredo (1972) DVD5 скачать через торрент бесплатно
  • Принесите мне голову Альфредо Гарсиа / Bring Me the Head of Alfredo Garcia (1974) BDRip [720p] скачать через торрент бесплатно
  • Принесите мне голову Альфредо Гарсиа / Bring Me the Head of Alfredo Garcia (1974) Blu-ray [H.264 / 1080p]


    • Комментарии (0):

      Информация

      Информация

        Посетители, находящиеся в группе Гости, не могут оставлять комментарии в данной новости.

        ↓ Меню




        ↓ Опрос

        Вы добавили сайт в закладки?
        Да
        Нет


        Top 10 за месяц (Фильмы)