.
Авторизация | Регистрация
Хочешь лучшие торренты? Добавь свой email!
Добавить

Торрент скачать бесплатно

» » Джек Ричер 2: Никогда не возвращайся / Jack Reacher: Never Go Back (2016) BDRip [H.265 / 1080p-LQ] торрент скачать бесплатно


    Джек Ричер 2: Никогда не возвращайся / Jack Reacher: Never Go Back (2016) BDRip [H.265 / 1080p-LQ] торрент скачать бесплатно

    Опубликовал: Админ | Дата: 3-04-2018, 05:00 | .torrent скачали: 0

    Джек Ричер 2: Никогда не возвращайся / Jack Reacher: Never Go Back (2016) BDRip [H.265 / 1080p-LQ]Производство: Китай, США
    Жанр: Боевик, Триллер, Криминал, Детектив
    Режиссер: Эдвард Цвик

    Актеры
    Том Круз, Коби Смолдерс, Роберт Неппер, Даника Ярош, Нинджа Н. Деву, Элдис Ходж, Холт МакКэллани, Мэдалин Хорчер, Чейз Савой, Сью-Линн Ансари

    Описание

    Экс-военный Джек Ричер приезжает в Вашингтон, чтобы впервые встретиться с майором Сьюзен Тернер, которая возглавила его бывшее подразделение и не раз выручала его в непростых ситуациях. По странному стечению обстоятельств буквально накануне его визита майора арестовывают по обвинению в измене… Ричеру, уверенному в невиновности Сьюзен, предстоит освободить ее и раскрыть заговор, ниточки которого тянутся на самый верх. Стремясь докопаться до правды, он также делает поразительное открытие, способное раз и навсегда изменить его жизнь…

    Возраст: 16+ (зрителям, достигшим 16 лет)
    Рейтинг MPAA: PG-13 (детям до 13 лет просмотр нежелателен)
    Релиз от: M@kSIMus
    Продолжительность: 01: 58: 08
    Качество видео: BDRip
    Перевод: Дублированный
    Субтитры: Отсутствуют
    Видео: HEVC/H.265, 1920x804 (2, 40: 1), ~4522 Kbps
    Аудио 1: AC3, 6 ch, 448 Kbps (Дублированный)
    Аудио 2: AC3, 6 ch, 448 Kbps (Ориганал)

    Общее
    Уникальный идентификатор : 332594299893946535722258457614722039678 (0xFA375507C56015364D9DAA261D687F7E)
    Полное имя : E: ФильмыДжек РичерДжек Ричер 2 - Никогда не возвращайся (2016) BDRip 1080p HEVC 8 bit отM@kSIMus.mkv
    Формат : Matroska
    Версия формата : Version 4/Version 2
    Размер файла : 4, 56 Гбайт
    Продолжительность : 1 ч. 58 м.
    Общий поток : 5528 Кбит/сек
    Название фильма : Релиз подготовлен специально для сайта hevc-club.ucoz.net Автор релиза: M@kSIMus
    Дата кодирования : UTC 2018-03-29 05: 55: 48
    Программа кодирования : mkvmerge v19.0.0 (\'Brave Captain\') 64-bit
    Библиотека кодирования : libebml v1.3.5 + libmatroska v1.4.8
    Attachements : cover.jpg
    Видео
    Идентификатор : 1
    Формат : HEVC
    Формат/Информация : High Efficiency Video Coding
    Профиль формата : Main@L4.1
    Идентификатор кодека : V_MPEGH/ISO/HEVC
    Продолжительность : 1 ч. 58 м.
    Битрейт : 4522 Кбит/сек
    Ширина : 1920 пикселей
    Высота : 804 пикселя
    Соотношение сторон : 2, 40: 1
    Режим частоты кадров : Постоянный
    Частота кадров : 23, 976 кадра/сек
    Цветовое пространство : YUV
    Субдискретизация насыщенности : 4: 2: 0
    Битовая глубина : 8 бит
    Бит/(Пиксели*Кадры) : 0.122
    Размер потока : 3, 73 Гбайт (82%)
    Библиотека кодирования : x265 2.7+8-613d9f443769: Windowsclang 7.0.064 bit 8bit
    Настройки программы : cpuid=1050111/frame-threads=5/wpp/no-pmode/no-pme/no-psnr/no-ssim/log-level=3/input-csp=1/input-res=1920x804/interlace=0/total-frames=0/level-idc=41/high-tier=1/uhd-bd=0/ref=3/allow-non-conformance/no-repeat-t_heads/annexb/no-aud/no-hrd/info/hash=0/no-temporal-layers/open-gop/min-keyint=24/keyint=240/gop-lookahead=0/bframes=4/b-adapt=2/b-pyramid/bframe-bias=0/rc-lookahead=20/lookahead-slices=5/scenecut=40/radl=0/no-intra-refresh/ctu=64/min-cu-size=8/no-rect/no-amp/max-tu-size=32/tu-inter-depth=1/tu-intra-depth=1/limit-tu=0/rdoq-level=0/dynamic-rd=0.00/no-ssim-rd/signhide/no-tskip/nr-intra=0/nr-inter=0/no-constrained-intra/strong-intra-smoothing/max-merge=2/limit-refs=3/no-limit-modes/me=1/subme=5/merange=57/temporal-mvp/weightp/no-weightb/no-analyze-src-pics/deblock=-3: -3/sao/no-sao-non-deblock/rd=3/no-early-skip/rskip/no-fast-intra/no-tskip-fast/no-cu-lossless/no-b-intra/no-splitrd-skip/rdpenalty=0/psy-rd=2.00/psy-rdoq=0.00/no-rd-refine/no-lossless/cbqpoffs=0/crqpoffs=0/rc=crf/crf=18.0/qcomp=0.75/qpstep=4/stats-write=0/stats-read=0/vbv-maxrate=5200/vbv-bufsize=3714/vbv-init=0.9/crf-max=30.0/crf-min=0.0/ipratio=1.40/pbratio=1.30/aq-mode=1/aq-strength=1.00/cutree/zone-count=0/no-strict-cbr/qg-size=32/no-rc-grain/qpmax=69/qpmin=0/no-const-vbv/sar=1/overscan=0/videoformat=5/range=0/colorprim=2/transfer=2/colormatrix=2/chromaloc=0/display-window=0/max-cll=0, 0/min-luma=0/max-luma=255/log2-max-poc-lsb=8/vui-timing-info/vui-hrd-info/slices=1/no-opt-qp-pps/no-opt-ref-list-length-pps/no-multi-pass-opt-rps/scenecut-bias=0.05/no-opt-cu-delta-qp/no-aq-motion/no-hdr/no-hdr-opt/no-dhdr10-opt/analysis-reuse-level=5/scale-factor=0/refine-intra=0/refine-inter=0/refine-mv=0/no-limit-sao/ctu-info=0/no-lowpass-dct/refine-mv-type=0/copy-pic=1/max-ausize-factor=1.0
    Язык : English
    Default : Да
    Forced : Нет
    DURATION : 01: 58: 08.957000000
    NUMBER_OF_FRAMES : 169965
    NUMBER_OF_BYTES : 4102500013
    _STATISTICS_WRITING_APP : mkvmerge v19.0.0 (\'Brave Captain\') 64-bit
    _STATISTICS_WRITING_DATE_UTC : 2018-03-29 05: 55: 48
    _STATISTICS_TAGS : BPS DURATION NUMBER_OF_FRAMES NUMBER_OF_BYTES
    Аудио #1
    Идентификатор : 2
    Формат : AC-3
    Формат/Информация : Audio Coding 3
    Расширение режима : CM (complete main)
    Параметр Endianness формата : Big
    Идентификатор кодека : A_AC3
    Продолжительность : 1 ч. 58 м.
    Вид битрейта : Постоянный
    Битрейт : 448 Кбит/сек
    Каналы : 6 каналов
    Расположение каналов : Front: L C R, Side: L R, LFE
    Частота : 48, 0 КГц
    Битовая глубина : 16 бит
    Метод сжатия : С потерями
    Размер потока : 379 Мбайт (8%)
    Заголовок : Дубляж
    Язык : Russian
    Default : Да
    Forced : Нет
    DURATION : 01: 58: 08.960000000
    NUMBER_OF_FRAMES : 221530
    NUMBER_OF_BYTES : 396981760
    _STATISTICS_WRITING_APP : mkvmerge v19.0.0 (\'Brave Captain\') 64-bit
    _STATISTICS_WRITING_DATE_UTC : 2018-03-29 05: 55: 48
    _STATISTICS_TAGS : BPS DURATION NUMBER_OF_FRAMES NUMBER_OF_BYTES
    Аудио #2
    Идентификатор : 3
    Формат : AC-3
    Формат/Информация : Audio Coding 3
    Расширение режима : CM (complete main)
    Параметр Endianness формата : Big
    Идентификатор кодека : A_AC3
    Продолжительность : 1 ч. 58 м.
    Вид битрейта : Постоянный
    Битрейт : 448 Кбит/сек
    Каналы : 6 каналов
    Расположение каналов : Front: L C R, Side: L R, LFE
    Частота : 48, 0 КГц
    Битовая глубина : 16 бит
    Метод сжатия : С потерями
    Размер потока : 379 Мбайт (8%)
    Заголовок : Оригинал
    Язык : English
    Default : Нет
    Forced : Нет
    DURATION : 01: 58: 08.960000000
    NUMBER_OF_FRAMES : 221530
    NUMBER_OF_BYTES : 396981760
    _STATISTICS_WRITING_APP : mkvmerge v19.0.0 (\'Brave Captain\') 64-bit
    _STATISTICS_WRITING_DATE_UTC : 2018-03-29 05: 55: 48
    _STATISTICS_TAGS : BPS DURATION NUMBER_OF_FRAMES NUMBER_OF_BYTES
    Доп. информация : - H.265/HEVC (High Efficiency Video Coding) - это новый стандарт кодирования видео.
    - Стандарт H.265/HEVC является логическим продолжением стандарта H.264/AVC (Advanced Video Coding), и характеризуется более эффективными алгоритмами сжатия, а также поддержкой высокого разрешения вплоть до 8K UHD (8192x4320). Первая версия стандарта H.265 была опубликована в начале 2013 года.
    - Рипы в фомате HEVC поддерживается не всеми аппаратными проигрывателями.
    - Для корректного воспроизведения может потребоваться обновление ПО.
    - Владельцам несовместимого железа просьба не беспокоить, есть альтернативные релизы.

    Скриншоты для ознакомления



    Все одноименные релизы в Клубе
    Время раздачи: с 8: 00 до 22: 00 (до появления первых 3-5 скачавших)


    Онлайн видео Джек Ричер 2: Никогда не возвращайся



    Джек Ричер 2: Никогда не возвращайся/Jack Reacher: Never Go Back (2016) BDRip [H.265/1080p-LQ]
    Рейтинг →
     (голосов: 1, оценка 3/5, голосовать можно 1 раз )

    Другие торренты по теме:

  • Ли Чайлд | Серия «Джек Ричер» [15 книг] (2004-2014) [FB2] скачать через торрент бесплатно
  • Джек Ричер / Jack Reacher (2012) BDRip [H.264]
  • Джек Ричер / Jack Reacher (2012) DVD5 [BD -> DVD] скачать через торрент бесплатно
  • Ли Чайлд | Джек Ричер, или Никогда не возвращайся (2016) [FB2]
  • Джек Ричер 2: Никогда не возвращайся / Jack Reacher: Never Go Back (2016) WEBRip [H.264 / 1080p] [Трейлер]
  • Джек Ричер / Jack Reacher (2012) BDRip [H.265 / 1080p-LQ]
  • Ли Чайлд | Джек Ричер, или Личный интерес (2016) [FB2]
  • Джек Ричер 2: Никогда не возвращайся / Jack Reacher: Never Go Back (2016) CamRip


    • Комментарии (0):

      Информация

      Информация

        Посетители, находящиеся в группе Гости, не могут оставлять комментарии в данной новости.

        ↓ Меню




        ↓ Опрос

        Вы добавили сайт в закладки?
        Да
        Нет


        Top 10 за месяц (Фильмы)