.
Авторизация | Регистрация
Хочешь лучшие торренты? Добавь свой email!
Добавить

Торрент скачать бесплатно

» » Дикость / Wild Things (1998) BDRip [UNRATED] [H.265 / 1080p-LQ] [10-bit] торрент скачать бесплатно


    Дикость / Wild Things (1998) BDRip [UNRATED] [H.265 / 1080p-LQ] [10-bit] торрент скачать бесплатно

    Опубликовал: Админ | Дата: 3-04-2018, 05:00 | .torrent скачали: 1

    Дикость / Wild Things (1998) BDRip [UNRATED] [H.265 / 1080p-LQ] [10-bit]Производство: США
    Жанр: Триллер, Драма, Криминал, Детектив
    Режиссер: Джон МакНотон

    Актеры
    Мэтт Диллон, Дэниз Ричардс, Билл Мюррэй, Кевин Бейкон, Нив Кэмпбелл, Тереза Расселл, Дафна Рубин-Вега, Роберт Вагнер, Кэрри Снодгресс, Джефф Перри

    Описание

    Семнадцатилетняя Келли влюбляется в своего учителя Сэма. Она использует всевозможные способы, чтобы привлечь его внимание, но безрезультатно. А когда девушка не получает желаемого, она начинает мстить. Несостоявшаяся любовница обвиняет Сэма в изнасиловании.

    Возраст: 18+ (зрителям, достигшим 18 лет. запрещено для детей)
    Рейтинг MPAA: R (лицам до 17 лет обязательно присутствие взрослого)
    Релиз от: HANNIBAL
    Продолжительность: 01: 54: 46
    Качество видео: BDRip
    Перевод: Дублированный
    Субтитры: Отсутствуют
    Видео: HEVC/H.265, 1920x800, ~4971 Kbps
    Аудио 1: AC3, 6 ch, 384 Kbps (Дублированный+ Авторский (одноголосый, закадровый) В.Королев на моменты расширенной версии
    Аудио 2: AC3, 6 ch, 640 Kbps (Оригинал)

    Общее
    Уникальный идентификатор : 254260147218827160312948214932706007171 (0xBF48B91E58C47248803E2023AB899883)
    Полное имя : J: ФИЛЬМЫWild Things UNRATED (1998) BDRip 1080p HEVC 10bit.mkv
    Формат : Matroska
    Версия формата : Version 4/Version 2
    Размер файла : 4, 81 Гбайт
    Продолжительность : 1 ч. 54 м.
    Общий поток : 5997 Кбит/сек
    Название фильма : Wild.Things.1998.1080p.Bluray.Unrated.AVC.Remux
    Дата кодирования : UTC 2018-03-27 13: 42: 04
    Программа кодирования : mkvmerge v8.9.0 (\'Father Daughter\') 64bit
    Библиотека кодирования : libebml v1.3.3 + libmatroska v1.4.4/Lavf57.71.100
    Обложка : Yes
    Attachments : cover.jpg
    ENCODING_INFO : MATROSKA, WEBM MKV/H264 X265 CBR 5000kbps Medium/AC3 AC3 CBR 384kbps/DTS-HD MA AC3 CBR 640kbps
    Видео
    Идентификатор : 1
    Формат : HEVC
    Формат/Информация : High Efficiency Video Coding
    Профиль формата : Main10@L5.1@Main
    Идентификатор кодека : V_MPEGH/ISO/HEVC
    Продолжительность : 1 ч. 54 м.
    Битрейт : 4971 Кбит/сек
    Ширина : 1920 пикселей
    Высота : 800 пикселей
    Соотношение сторон : 2, 40: 1
    Режим частоты кадров : Постоянный
    Частота кадров : 23, 976 (24000/1001) кадра/сек
    Цветовое пространство : YUV
    Субдискретизация насыщенности : 4: 2: 0
    Битовая глубина : 10 бит
    Бит/(Пиксели*Кадры) : 0.135
    Размер потока : 3, 99 Гбайт (83%)
    Заголовок : uralmix
    Библиотека кодирования : x265 2.7+8-613d9f443769: Windowsclang 7.0.064 bit 10bit
    Настройки программы : cpuid=1050111/frame-threads=5/numa-pools=4/wpp/no-pmode/no-pme/no-psnr/no-ssim/log-level=3/input-csp=1/input-res=1920x800/interlace=0/total-frames=0/level-idc=51/high-tier=1/uhd-bd=0/ref=3/allow-non-conformance/no-repeat-t_heads/annexb/no-aud/no-hrd/info/hash=0/no-temporal-layers/open-gop/min-keyint=24/keyint=240/gop-lookahead=0/bframes=4/b-adapt=2/b-pyramid/bframe-bias=0/rc-lookahead=20/lookahead-slices=5/scenecut=40/radl=0/no-intra-refresh/ctu=64/min-cu-size=8/no-rect/no-amp/max-tu-size=32/tu-inter-depth=1/tu-intra-depth=1/limit-tu=0/rdoq-level=0/dynamic-rd=0.00/no-ssim-rd/signhide/no-tskip/nr-intra=0/nr-inter=0/no-constrained-intra/strong-intra-smoothing/max-merge=2/limit-refs=3/no-limit-modes/me=1/subme=2/merange=57/temporal-mvp/weightp/no-weightb/no-analyze-src-pics/deblock=-2: -2/sao/no-sao-non-deblock/rd=3/no-early-skip/rskip/no-fast-intra/no-tskip-fast/no-cu-lossless/no-b-intra/no-splitrd-skip/rdpenalty=0/psy-rd=2.00/psy-rdoq=0.00/no-rd-refine/no-lossless/cbqpoffs=0/crqpoffs=0/rc=cbr/bitrate=5000/qcomp=0.60/qpstep=4/stats-write=0/stats-read=0/vbv-maxrate=5000/vbv-bufsize=3571/vbv-init=0.9/ipratio=1.40/pbratio=1.30/aq-mode=1/aq-strength=1.00/cutree/zone-count=0/no-strict-cbr/qg-size=32/no-rc-grain/qpmax=69/qpmin=0/no-const-vbv/sar=1/overscan=0/videoformat=5/range=0/colorprim=9/transfer=14/colormatrix=10/chromaloc=0/display-window=0/max-cll=0, 0/min-luma=0/max-luma=1023/log2-max-poc-lsb=8/vui-timing-info/vui-hrd-info/slices=1/no-opt-qp-pps/no-opt-ref-list-length-pps/no-multi-pass-opt-rps/scenecut-bias=0.05/no-opt-cu-delta-qp/no-aq-motion/no-hdr/no-hdr-opt/no-dhdr10-opt/analysis-reuse-level=5/scale-factor=0/refine-intra=0/refine-inter=0/refine-mv=0/no-limit-sao/ctu-info=0/no-lowpass-dct/refine-mv-type=0/copy-pic=1/max-ausize-factor=1.0
    Default : Да
    Forced : Нет
    Цветовой диапазон : Limited
    Основные цвета : BT.2020
    Характеристики трансфера : BT.2020 (10-bit)
    Коэффициенты матрицы : BT.2020 constant
    Аудио #1
    Идентификатор : 2
    Формат : AC-3
    Формат/Информация : Audio Coding 3
    Идентификатор кодека : A_AC3
    Продолжительность : 1 ч. 54 м.
    Вид битрейта : Постоянный
    Битрейт : 384 Кбит/сек
    Каналы : 6 каналов
    Расположение каналов : Front: L C R, Side: L R, LFE
    Частота : 48, 0 КГц
    Частота кадров : 31, 250 кадров/сек (1536 SPF)
    Битовая глубина : 16 бит
    Метод сжатия : С потерями
    Размер потока : 315 Мбайт (6%)
    Заголовок : дубляж
    Язык : Russian
    ServiceKind/String : Complete Main
    Default : Да
    Forced : Нет
    Аудио #2
    Идентификатор : 3
    Формат : AC-3
    Формат/Информация : Audio Coding 3
    Идентификатор кодека : A_AC3
    Продолжительность : 1 ч. 54 м.
    Вид битрейта : Постоянный
    Битрейт : 640 Кбит/сек
    Каналы : 6 каналов
    Расположение каналов : Front: L C R, Side: L R, LFE
    Частота : 48, 0 КГц
    Частота кадров : 31, 250 кадров/сек (1536 SPF)
    Битовая глубина : 16 бит
    Метод сжатия : С потерями
    Размер потока : 525 Мбайт (11%)
    Язык : English
    ServiceKind/String : Complete Main
    Default : Нет
    Forced : Нет
    Меню
    00: 00: 00.000 : : 00: 00: 00.000
    00: 03: 55.318 : : 00: 03: 55.318
    00: 13: 35.023 : : 00: 13: 35.023
    00: 19: 46.352 : : 00: 19: 46.352
    00: 26: 08.650 : : 00: 26: 08.650
    00: 32: 33.785 : : 00: 32: 33.785
    00: 40: 53.326 : : 00: 40: 53.326
    00: 51: 34.300 : : 00: 51: 34.300
    00: 59: 59.971 : : 00: 59: 59.971
    01: 06: 33.364 : : 01: 06: 33.364
    01: 13: 38.956 : : 01: 13: 38.956
    01: 20: 09.304 : : 01: 20: 09.304
    01: 28: 21.254 : : 01: 28: 21.254
    01: 31: 48.837 : : 01: 31: 48.837
    01: 34: 44.929 : : 01: 34: 44.929
    01: 42: 09.790 : : 01: 42: 09.790
    Доп. информация : - H.265/HEVC (High Efficiency Video Coding) - это новый стандарт кодирования видео.
    - Стандарт H.265/HEVC является логическим продолжением стандарта H.264/AVC (Advanced Video Coding), и характеризуется более эффективными алгоритмами сжатия, а также поддержкой высокого разрешения вплоть до 8K UHD (8192x4320). Первая версия стандарта H.265 была опубликована в начале 2013 года.
    - Рипы в фомате HEVC поддерживается не всеми аппаратными проигрывателями.
    - Для корректного воспроизведения может потребоваться обновление ПО.
    - Владельцам несовместимого железа просьба не беспокоить, есть альтернативные релизы.

    Скриншоты для ознакомления



    Все одноименные релизы в Клубе
    Время раздачи: с 8: 00 до 22: 00 (до появления первых 3-5 скачавших)


    Онлайн видео Дикость



    Дикость/Wild Things (1998) BDRip [UNRATED] [H.265/1080p-LQ] [10-bit]
    Рейтинг →
     (голосов: 1, оценка 5/5, голосовать можно 1 раз )

    Другие торренты по теме:

  • Дикость / Wild Things (1998) BDRip [H.264 / 720р-LQ] [Unrated Edition] скачать через торрент бесплатно
  • Дикость / Дикие Штучки / Wild Things (1998) BDRip [h264] [AVO] скачать через торрент бесплатно
  • Дикость 2 / Wild Things 2 (2004) WEB-DLRip [H.264]
  • Дикость: Коллекция / Wild Things: Collection (1998-2010) BDRip, WEB-DLRip [H.264 / 720p]


    • Комментарии (0):

      Информация

      Информация

        Посетители, находящиеся в группе Гости, не могут оставлять комментарии в данной новости.

        ↓ Меню




        ↓ Опрос

        Вы добавили сайт в закладки?
        Да
        Нет


        Top 10 за месяц (Фильмы)