.
Авторизация | Регистрация
Хочешь лучшие торренты? Добавь свой email!
Добавить

Торрент скачать бесплатно

» » Самый пьяный округ в мире / Lawless (2012) BDRip [H.264] [International Cut] торрент скачать бесплатно


    Самый пьяный округ в мире / Lawless (2012) BDRip [H.264] [International Cut] торрент скачать бесплатно

    Опубликовал: Админ | Дата: 3-04-2018, 05:00 | .torrent скачали: 1

    Самый пьяный округ в мире / Lawless (2012) BDRip [H.264] [International Cut]Производство: США/Annapurna Pictures, Benaroya Pictures, Blum Hanson Allen Films
    Жанр: драма, криминал
    Режиссер: Джон Хиллкоут

    Актеры
    Шайа ЛаБаф, Том Харди, Джейсон Кларк, Джессика Честейн, Гай Пирс, Миа Васиковска, Дэйн ДеХаан, Гари Олдман, Крис МакГарри, Лью Темпл, Тим Толин, Маркус Хестер

    Описание

    Действие в картине разворачивается на американском Юге во времена сухого закона и Великой Депрессии. В центре сюжета — семья Бондурант, три брата, Джек, Форрест и Говард, которые занимаются запрещенным в то время бизнесом, бутлегерством.
    Оптимистично настроенный Джек, самый молодой из братьев, надеется с помощью бутлегерства заработать денег и произвести впечатление на свою девушку Берту. В это же время Форрест, напротив, настроен очень мрачно, он молчалив и подозрителен, а Говарду к тому же часто приходится иметь дело с врагами незаконного семейного бизнеса, в лице которых выступают коррумпированные местные полицейские.

    Возраст: 18+ (зрителям, достигшим 18 лет)
    Рейтинг MPAA: R (лицам до 17 лет обязательно присутствие взрослого)
    Релиз от: stalkerok New-Team
    Продолжительность: 01: 56: 23
    Качество видео: BDRip
    Перевод: Дублированный (Blu-ray RUS), Авторский (Юрий Сербин)
    Субтитры : русские (форсированные, полные), английские (полные)
    Видео : AVC/H.264, 2097 kbps, 1146x478 (2.40: 1), 23, 976 fps
    Аудио #1 : AC3, 448 kbps, 6 ch - русский | Дубляж
    Аудио #2 : AC3, 448 kbps, 6 ch - русский | Ю. Сербин
    Аудио #3 : AC3, 448 kbps, 6 ch - английский
    BDRemux 1080p @ kingsize87

    ---Information 20.03.2018 23: 37: 24 x264 info: frame I: 1205 Avg QP: 17.82 size: 80622
    ---Information 20.03.2018 23: 37: 24 x264 info: frame P: 32146 Avg QP: 19.96 size: 24362
    ---Information 20.03.2018 23: 37: 24 x264 info: frame B: 134086 Avg QP: 21.61 size: 7088
    Общее
    Уникальный идентификатор : 219726780649101383165333512318491565694 (0xA54DD6B158AC6E1391ABB77269BC1E7E)
    Полное имя : V: !RipsLawless (2012)Lawless.2012.BDRip-AVC.RUS.ENG.stalkerok.new-team.mkv
    Формат : Matroska
    Версия формата : Version 4/Version 2
    Размер файла : 2, 80 Гбайт
    Продолжительность : 1 ч. 56 м.
    Общий поток : 3439 Кбит/сек
    Название фильма : Lawless (2012) (Rip by stalkerok)
    Дата кодирования : UTC 2018-03-21 10: 16: 48
    Программа кодирования : mkvmerge v8.6.1 (\'Flying\') 64bit
    Библиотека кодирования : libebml v1.3.3 + libmatroska v1.4.4
    Видео
    Идентификатор : 1
    Формат : AVC
    Формат/Информация : Advanced Video Codec
    Профиль формата : High@L4.1
    Параметр CABAC формата : Да
    Параметр ReFrames формата : 12 кадров
    Идентификатор кодека : V_MPEG4/ISO/AVC
    Продолжительность : 1 ч. 56 м.
    Битрейт : 2097 Кбит/сек
    Ширина : 1146 пикселей
    Высота : 478 пикселей
    Соотношение сторон : 2, 40: 1
    Режим частоты кадров : Постоянный
    Частота кадров : 23, 976 (24000/1001) кадра/сек
    Цветовое пространство : YUV
    Субдискретизация насыщенности : 4: 2: 0
    Битовая глубина : 8 бит
    Тип развёртки : Прогрессивная
    Бит/(Пиксели*Кадры) : 0.160
    Размер потока : 1, 71 Гбайт (61%)
    Заголовок : Lawless (2012) (Rip by stalkerok)
    Библиотека кодирования : x264 core 155 r2901 7d0ff22
    Настройки программы : cabac=1/ref=12/deblock=1: -2: -1/analyse=0x3: 0x133/me=umh/subme=11/psy=1/psy_rd=1.00: 0.00/mixed_ref=1/me_range=32/chroma_me=1/trellis=2/8x8dct=1/cqm=0/deadzone=21, 11/fast_pskip=0/chroma_qp_offset=-2/threads=12/lookahead_threads=3/sliced_threads=0/nr=0/decimate=1/interlaced=0/bluray_compat=0/constrained_intra=0/bframes=14/b_pyramid=2/b_adapt=2/b_bias=0/direct=3/weightb=1/open_gop=0/weightp=2/keyint=240/keyint_min=23/scenecut=40/intra_refresh=0/rc_lookahead=60/rc=crf/mbtree=0/crf=19.7/qcomp=0.65/qpmin=0/qpmax=69/qpstep=4/vbv_maxrate=50000/vbv_bufsize=62500/crf_max=0.0/nal_hrd=none/filler=0/ip_ratio=1.40/pb_ratio=1.30/aq=3: 0.80/zones=158126, 167436, q=30
    Default : Да
    Forced : Нет
    Аудио #1
    Идентификатор : 2
    Формат : AC-3
    Формат/Информация : Audio Coding 3
    Расширение режима : CM (complete main)
    Параметр Endianness формата : Big
    Идентификатор кодека : A_AC3
    Продолжительность : 1 ч. 55 м.
    Вид битрейта : Постоянный
    Битрейт : 448 Кбит/сек
    Каналы : 6 каналов
    Расположение каналов : Front: L C R, Side: L R, LFE
    Частота : 48, 0 КГц
    Частота кадров : 31, 250 кадров/сек (1536 spf)
    Метод сжатия : С потерями
    Размер потока : 369 Мбайт (13%)
    Заголовок : Dub
    Язык : Russian
    Default : Да
    Forced : Нет
    Аудио #2
    Идентификатор : 6
    Формат : AC-3
    Формат/Информация : Audio Coding 3
    Расширение режима : CM (complete main)
    Параметр Endianness формата : Big
    Идентификатор кодека : A_AC3
    Продолжительность : 1 ч. 56 м.
    Вид битрейта : Постоянный
    Битрейт : 448 Кбит/сек
    Каналы : 6 каналов
    Расположение каналов : Front: L C R, Side: L R, LFE
    Частота : 48, 0 КГц
    Частота кадров : 31, 250 кадров/сек (1536 spf)
    Метод сжатия : С потерями
    Размер потока : 373 Мбайт (13%)
    Заголовок : Юрий Сербин
    Язык : Russian
    Default : Нет
    Forced : Нет
    Аудио #3
    Идентификатор : 7
    Формат : AC-3
    Формат/Информация : Audio Coding 3
    Расширение режима : CM (complete main)
    Параметр Endianness формата : Big
    Идентификатор кодека : A_AC3
    Продолжительность : 1 ч. 56 м.
    Вид битрейта : Постоянный
    Битрейт : 448 Кбит/сек
    Каналы : 6 каналов
    Расположение каналов : Front: L C R, Side: L R, LFE
    Частота : 48, 0 КГц
    Частота кадров : 31, 250 кадров/сек (1536 spf)
    Метод сжатия : С потерями
    Размер потока : 373 Мбайт (13%)
    Язык : English
    Default : Нет
    Forced : Нет
    Текст #1
    Идентификатор : 3
    Формат : UTF-8
    Идентификатор кодека : S_TEXT/UTF8
    Идентификатор кодека/Информация : UTF-8 Plain Text
    Продолжительность : 1 ч. 50 м.
    Битрейт : 0 бит/сек
    Count of elements : 11
    Размер потока : 658 байт (0%)
    Заголовок : Forced
    Язык : Russian
    Default : Нет
    Forced : Нет
    Текст #2
    Идентификатор : 4
    Формат : UTF-8
    Идентификатор кодека : S_TEXT/UTF8
    Идентификатор кодека/Информация : UTF-8 Plain Text
    Продолжительность : 1 ч. 50 м.
    Битрейт : 64 бит/сек
    Count of elements : 969
    Размер потока : 52, 0 Кбайт (0%)
    Язык : Russian
    Default : Нет
    Forced : Нет
    Текст #3
    Идентификатор : 5
    Формат : UTF-8
    Идентификатор кодека : S_TEXT/UTF8
    Идентификатор кодека/Информация : UTF-8 Plain Text
    Продолжительность : 1 ч. 52 м.
    Битрейт : 46 бит/сек
    Count of elements : 1128
    Размер потока : 38, 4 Кбайт (0%)
    Язык : English
    Default : Нет
    Forced : Нет
    Меню
    00: 00: 00.000 : en: Chapter 1
    00: 04: 36.818 : en: Chapter 2
    00: 09: 16.639 : en: Chapter 3
    00: 14: 39.587 : en: Chapter 4
    00: 21: 55.689 : en: Chapter 5
    00: 26: 34.343 : en: Chapter 6
    00: 34: 23.895 : en: Chapter 7
    00: 41: 06.964 : en: Chapter 8
    00: 48: 30.825 : en: Chapter 9
    00: 56: 45.652 : en: Chapter 10
    01: 05: 11.074 : en: Chapter 11
    01: 11: 21.903 : en: Chapter 12
    01: 19: 30.724 : en: Chapter 13
    01: 25: 00.887 : en: Chapter 14
    01: 31: 49.838 : en: Chapter 15
    01: 37: 32.889 : en: Chapter 16
    01: 44: 44.737 : en: Chapter 17
    01: 49: 07.708 : en: Chapter 18

    Скриншоты для ознакомления



    Все одноименные релизы в Клубе
    Время раздачи: 24/7 (до появления первых 3-5 скачавших)


    Онлайн видео Самый пьяный округ в мире



    Самый пьяный округ в мире/Lawless (2012) BDRip [H.264] [International Cut]
    Рейтинг →
     (голосов: 1, оценка 4/5, голосовать можно 1 раз )

    Другие торренты по теме:

  • Самый пьяный округ в мире / Lawless (2012) BDRip [H.265 / 1080p-LQ] [International Cut]
  • Самый пьяный округ в мире / Lawless (2012) BDRip [H.264] [International Cut]
  • Самый пьяный округ в мире / Lawless (2012) BDRip [H.264] [International Cut]


    • Комментарии (0):

      Информация

      Информация

        Посетители, находящиеся в группе Гости, не могут оставлять комментарии в данной новости.

        ↓ Меню




        ↓ Опрос

        Вы добавили сайт в закладки?
        Да
        Нет


        Top 10 за месяц (Фильмы)