.
Авторизация | Регистрация
Хочешь лучшие торренты? Добавь свой email!
Добавить

Торрент скачать бесплатно

  • support: webmaster@btracker.org
» » Сука-любовь / Amores perros (2000) BDRip [H.264 / 1080p] торрент скачать бесплатно


    Сука-любовь / Amores perros (2000) BDRip [H.264 / 1080p] торрент скачать бесплатно

    Опубликовал: Админ | Дата: 3-04-2018, 05:00 | .torrent скачали: 0

    Сука-любовь / Amores perros (2000) BDRip [H.264 / 1080p]Производство: Мексика/Altavista Films
    Жанр: триллер, драма, криминал
    Режиссер: Алехандро Гонсалес Иньярриту
    Продюсер: Гильермо Арриага, Рауль Олвера Феррер, Франсиско Гонсалес Компеан

    Актеры
    Эмилио Эчеваррия, Гаэль Гарсия Берналь, Гойя Толедо, Альваро Герреро, Ванесса Бауче, Хорхе Салинас, Марко Перес, Родриго Мюррэй, Умберто Бусто

    Описание

    Мехико-Сити, фатальная авария. Сталкиваются три жизни, раскрывая предательскую сторону человеческой природы. Будоражащая и волнующая история об искуплении и об уязвимости и сложности человеческой жизни.

    Возраст: 18+ (зрителям, достигшим 18 лет. запрещено для детей)
    Рейтинг MPAA: R (лицам до 17 лет обязательно присутствие взрослого)

    Релиз от: WIDDER
    Продолжительность: 02: 34: 09
    Качество: BDRip 1080p
    Перевод: Профессиональный многоголосый (Лицензия, Premier Digital/Cinema Prestige), (СТС)
    Субтитры: Русские, Английские
    Видео: AVC/H.264, 1920x1080, (16: 9), 10.5 Mbps, 23.976 fps
    Аудио: DTS, 6 ch, 1509 kbps - Русский, Premier Digital/Cinema Prestige
    Аудио: AC3, 2 ch, 192 kbps - Русский, СТС
    Аудио: AC3, 6 ch, 640 kbps - Испанский
    General
    Unique ID : 246409424744736939928323961178213407096 (0xB960BA9DBEF6AD4EAF96D58523CD5978)
    Complete name : Amores.perros.2000.x264.BDRip.1080p.mkv
    Format : Matroska
    Format version : Version 2
    File size : 13.8 GiB
    Duration : 2 h 34 min
    Overall bit rate : 12.9 Mb/s
    Movie name : ☭WIDDER☭
    Encoded date : UTC 2012-07-26 06: 50: 19
    Writing application : mkvmerge v5.4.0 (\'Piper\') built on Mar 10 2012 13: 34: 39
    Writing library : libebml v1.2.3 + libmatroska v1.3.0
    Video
    ID : 1
    Format : AVC
    Format/Info : Advanced Video Codec
    Format profile : High@L4.1
    Format settings : CABAC/4 Ref Frames
    Format settings, CABAC : Yes
    Format settings, ReFrames : 4 frames
    Codec ID : V_MPEG4/ISO/AVC
    Duration : 2 h 34 min
    Bit rate : 10.5 Mb/s
    Width : 1 920 pixels
    Height : 1 080 pixels
    Display aspect ratio : 16: 9
    Frame rate mode : Constant
    Frame rate : 23.976 (24000/1001) FPS
    Color space : YUV
    Chroma subsampling : 4: 2: 0
    Bit depth : 8 bits
    Scan type : Progressive
    Bits/(Pixel*Frame) : 0.212
    Stream size : 11.0 GiB (80%)
    Title : Amores perros (2000)
    Writing library : x264 core 125 r2200 999b753
    Encoding settings : cabac=1/ref=4/deblock=1: -3: -3/analyse=0x3: 0x133/me=umh/subme=11/psy=1/psy_rd=1.00: 0.00/mixed_ref=1/me_range=48/chroma_me=1/trellis=2/8x8dct=1/cqm=0/deadzone=21, 11/fast_pskip=0/chroma_qp_offset=-2/threads=12/lookahead_threads=2/sliced_threads=0/nr=0/decimate=1/interlaced=0/bluray_compat=0/constrained_intra=0/bframes=8/b_pyramid=2/b_adapt=2/b_bias=0/direct=3/weightb=1/open_gop=0/weightp=2/keyint=250/keyint_min=23/scenecut=40/intra_refresh=0/rc_lookahead=60/rc=2pass/mbtree=0/bitrate=10516/ratetol=1.0/qcomp=0.60/qpmin=0/qpmax=69/qpstep=4/cplxblur=20.0/qblur=0.5/vbv_maxrate=50000/vbv_bufsize=50000/nal_hrd=none/ip_ratio=1.40/pb_ratio=1.30/aq=1: 0.80
    Language : Spanish
    Default : Yes
    Forced : No
    Audio #1
    ID : 2
    Format : DTS
    Format/Info : Digital Theater Systems
    Codec ID : A_DTS
    Duration : 2 h 34 min
    Bit rate mode : Constant
    Bit rate : 1 509 kb/s
    Channel(s) : 6 channels
    Channel positions : Front: L C R, Side: L R, LFE
    Sampling rate : 48.0 kHz
    Frame rate : 93.750 FPS (512 SPF)
    Bit depth : 24 bits
    Compression mode : Lossy
    Stream size : 1.62 GiB (12%)
    Title : DTS 1509K
    Language : Russian
    Default : Yes
    Forced : No
    Audio #2
    ID : 3
    Format : AC-3
    Format/Info : Audio Coding 3
    Codec ID : A_AC3
    Duration : 2 h 34 min
    Bit rate mode : Constant
    Bit rate : 192 kb/s
    Channel(s) : 2 channels
    Channel positions : Front: L R
    Sampling rate : 48.0 kHz
    Frame rate : 31.250 FPS (1536 SPF)
    Bit depth : 16 bits
    Compression mode : Lossy
    Stream size : 212 MiB (1%)
    Title : AC3 192K
    Language : Russian
    Service kind : Complete Main
    Default : No
    Forced : No
    Audio #3
    ID : 4
    Format : AC-3
    Format/Info : Audio Coding 3
    Codec ID : A_AC3
    Duration : 2 h 34 min
    Bit rate mode : Constant
    Bit rate : 640 kb/s
    Channel(s) : 6 channels
    Channel positions : Front: L C R, Side: L R, LFE
    Sampling rate : 48.0 kHz
    Frame rate : 31.250 FPS (1536 SPF)
    Bit depth : 16 bits
    Compression mode : Lossy
    Stream size : 706 MiB (5%)
    Title : AC3 640K
    Language : Spanish
    Service kind : Complete Main
    Default : No
    Forced : No
    Text #1
    ID : 5
    Format : UTF-8
    Codec ID : S_TEXT/UTF8
    Codec ID/Info : UTF-8 Plain Text
    Language : Russian
    Default : No
    Forced : No
    Text #2
    ID : 6
    Format : UTF-8
    Codec ID : S_TEXT/UTF8
    Codec ID/Info : UTF-8 Plain Text
    Language : English
    Default : No
    Forced : No
    Menu
    00: 00: 00.000 : : Chapter 01
    00: 14: 43.465 : : Chapter 02
    00: 26: 44.185 : : Chapter 03
    00: 36: 08.457 : : Chapter 04
    00: 49: 57.452 : : Chapter 05
    00: 57: 45.545 : : Chapter 06
    01: 14: 45.230 : : Chapter 07
    01: 34: 14.649 : : Chapter 08
    01: 43: 21.570 : : Chapter 09
    01: 52: 05.260 : : Chapter 10
    02: 04: 47.229 : : Chapter 11
    02: 17: 42.254 : : Chapter 12
    YouTube

    Скриншоты для ознакомления


    Релизы фильма Сука-любовь/Amores perros на NNM Club
    Время раздачи: с 9: 00 до 23: 00


    Онлайн видео Сука-любовь



    Сука-любовь/Amores perros (2000) BDRip [H.264/1080p]
    Рейтинг →
     (голосов: 1, оценка 5/5, голосовать можно 1 раз )

    Другие торренты по теме:

  • Сука-любовь / Amores perros (2000) BDRip [H.264 / 720p-LQ] [Hi10P] скачать через торрент бесплатно
  • Сука-любовь / Amores perros (2000) BDRip [1080p]
  • Сука-любовь / Amores perros (2000) BDRip [H.265 / 1080p-LQ] [10-bit]


    • Комментарии (0):

      Информация

      Информация

        Посетители, находящиеся в группе Гости, не могут оставлять комментарии в данной новости.

        ↓ Меню




        ↓ Опрос

        Вы добавили сайт в закладки?
        Да
        Нет


        Top 10 за месяц (Фильмы)