.
Авторизация | Регистрация
Хочешь лучшие торренты? Добавь свой email!
Добавить

Торрент скачать бесплатно

» » Гарри Поттер и узник Азкабана / Harry Potter and the Prisoner of Azkaban (2004) UHD BDRemux [H.265 / 2160p] [4K, HDR, 10-bit] торрент скачать бесплатно


    Гарри Поттер и узник Азкабана / Harry Potter and the Prisoner of Azkaban (2004) UHD BDRemux [H.265 / 2160p] [4K, HDR, 10-bit] торрент скачать бесплатно

    Опубликовал: Админ | Дата: 3-04-2018, 05:00 | .torrent скачали: 0

    Гарри Поттер и узник Азкабана / Harry Potter and the Prisoner of Azkaban (2004) UHD BDRemux [H.265 / 2160p] [4K, HDR, 10-bit]Производство: Великобритания, США/Warner Bros. Pictures
    Жанр: фэнтези, приключения, семейный
    Режиссер: Альфонсо Куарон
    Продюсер: Крис Коламбус, Дэвид Хейман, Марк Рэдклифф

    Актеры
    Дэниэл Рэдклифф, Ричард Гриффитс, Пэм Феррис, Фиона Шоу, Гарри Меллинг, Адриан Роулинз, Джеральдин Соммервиль, Ли Инглби, Ленни Генри, Джимми Гарднер, Гэри Олдман, Роберт Харди и др.

    Описание

    В третьей части истории о юном волшебнике полюбившиеся всем герои — Гарри Поттер, Рон и Гермиона — возвращаются уже на третий курс школы чародейства и волшебства Хогвартс. На этот раз они должны раскрыть тайну узника, сбежавшего из зловещей тюрьмы Азкабан, чье пребывание на воле создает для Гарри смертельную опасность…

    Возраст: 16+ (зрителям, достигшим 16 лет)
    Рейтинг MPAA: PG (рекомендуется присутствие родителей)

    Релиз от: ExKinoRay Ivantsov
    Продолжительность: 02: 21: 42
    Качество: UHD BDRemux (HDR)
    Перевод: Дублированный (Лицензия), Профессиональный многоголосый (С.Р.И.), Авторский (Рудой)
    Субтитры: Русские (Форсированные, полные), украинские (полные), английские (полные)
    Видео: H.265/HEVC, 3840x2160p, (16: 9), 59.8 Mbps, 23.976 fps
    Аудио 1: AC3, 6 ch, 640 kbps - Русский, Дубляж
    Аудио 2: AC3, 6 ch, 448 kbps - Русский, С.Р.И
    Аудио 3: DTS, 6 ch, 755 kbps - Русский, Рудой
    Аудио 4: AC3, 6 ch, 640 kbps - Украинский, К1
    Аудио 5: AC3, 2 ch, 192 kbps - Украинский, Новый канал
    Аудио 6: AC3, 2 ch, 192 kbps - Украинский, 1+1
    Аудио 7: AC3, 2 ch, 192 kbps - Украинский, Інтер
    Аудио 8: DTS, 6 ch, 1510 kbps - Английский
    Аудио 9: DTS: X MA, 8 ch, 4228 kbps - Английский
    Аудио 10: DTS-HD MA, 6 ch, 2209 kbps - Немецкий
    Исходный диск на Blu-ray.com
    Просмотр 4K HDR-контента на ПК
    Видео
    Идентификатор : 1
    Формат : HEVC
    Формат/Информация : High Efficiency Video Coding
    Профиль формата : Main10@L5.1@High
    Идентификатор кодека : V_MPEGH/ISO/HEVC
    Продолжительность : 2 ч. 21 м.
    Битрейт : 59, 8 Мбит/сек
    Ширина : 3840 пикселей
    Высота : 2160 пикселей
    Соотношение сторон : 16: 9
    Режим частоты кадров : Постоянный
    Частота кадров : 23, 976 (24000/1001) кадра/сек
    Цветовое пространство : YUV
    Субдискретизация насыщенности : 4: 2: 0 (Type 2)
    Битовая глубина : 10 бит
    Бит/(Пиксели*Кадры) : 0.300
    Размер потока : 59, 1 Гбайт (84%)
    Библиотека кодирования : ATEME Titan KFE 3.7.3 (4.7.3.1001)
    Default : Да
    Forced : Нет
    Цветовой диапазон : Limited
    Основные цвета : BT.2020
    Характеристики трансфера : PQ
    Коэффициенты матрицы : BT.2020 non-constant
    Аудио #1
    Идентификатор : 2
    Формат : AC-3
    Формат/Информация : Audio Coding 3
    Параметр Endianness формата : Big
    Идентификатор кодека : A_AC3
    Продолжительность : 2 ч. 21 м.
    Вид битрейта : Постоянный
    Битрейт : 640 Кбит/сек
    Каналы : 6 каналов
    Расположение каналов : Front: L C R, Side: L R, LFE
    Частота : 48, 0 КГц
    Частота кадров : 31, 250 кадров/сек (1536 SPF)
    Битовая глубина : 16 бит
    Метод сжатия : С потерями
    Задержка видео : -38 мс.
    Размер потока : 649 Мбайт (1%)
    Заголовок : AC3 5.1 @ 640 kbps - (Дублированный) Blu-ray CEE
    Язык : Russian
    ServiceKind/String : Complete Main
    Default : Да
    Forced : Нет
    Аудио #2
    Идентификатор : 3
    Формат : AC-3
    Формат/Информация : Audio Coding 3
    Параметр Endianness формата : Big
    Идентификатор кодека : A_AC3
    Продолжительность : 2 ч. 21 м.
    Вид битрейта : Постоянный
    Битрейт : 448 Кбит/сек
    Каналы : 6 каналов
    Расположение каналов : Front: L C R, Side: L R, LFE
    Частота : 48, 0 КГц
    Частота кадров : 31, 250 кадров/сек (1536 SPF)
    Битовая глубина : 16 бит
    Метод сжатия : С потерями
    Задержка видео : -38 мс.
    Размер потока : 454 Мбайт (1%)
    Заголовок : AC3 5.1 @ 448 kbps - (Многоголосый) С.Р.И.
    Язык : Russian
    ServiceKind/String : Complete Main
    Default : Нет
    Forced : Нет
    Аудио #3
    Идентификатор : 4
    Формат : DTS
    Формат/Информация : Digital Theater Systems
    Режим : 16
    Параметр Endianness формата : Big
    Идентификатор кодека : A_DTS
    Продолжительность : 2 ч. 21 м.
    Вид битрейта : Постоянный
    Битрейт : 755 Кбит/сек
    Каналы : 6 каналов
    Расположение каналов : Front: L C R, Side: L R, LFE
    Частота : 48, 0 КГц
    Частота кадров : 93, 750 кадра/сек (512 SPF)
    Битовая глубина : 24 бит
    Метод сжатия : С потерями
    Задержка видео : -38 мс.
    Размер потока : 765 Мбайт (1%)
    Заголовок : DTS 5.1 @ 755 kbps - (Одноголосый) Рудой
    Язык : Russian
    Default : Нет
    Forced : Нет
    Аудио #4
    Идентификатор : 5
    Формат : AC-3
    Формат/Информация : Audio Coding 3
    Параметр Endianness формата : Big
    Идентификатор кодека : A_AC3
    Продолжительность : 2 ч. 21 м.
    Вид битрейта : Постоянный
    Битрейт : 640 Кбит/сек
    Каналы : 6 каналов
    Расположение каналов : Front: L C R, Side: L R, LFE
    Частота : 48, 0 КГц
    Частота кадров : 31, 250 кадров/сек (1536 SPF)
    Битовая глубина : 16 бит
    Метод сжатия : С потерями
    Задержка видео : -38 мс.
    Размер потока : 649 Мбайт (1%)
    Заголовок : AC3 5.1 @ 640 kbps - (Многоголосый), К1
    Язык : Ukrainian
    ServiceKind/String : Complete Main
    Default : Нет
    Forced : Нет
    Аудио #5
    Идентификатор : 6
    Формат : AC-3
    Формат/Информация : Audio Coding 3
    Параметр Endianness формата : Big
    Идентификатор кодека : A_AC3
    Продолжительность : 2 ч. 21 м.
    Вид битрейта : Постоянный
    Битрейт : 192 Кбит/сек
    Каналы : 2 канала
    Расположение каналов : Front: L R
    Частота : 48, 0 КГц
    Частота кадров : 31, 250 кадров/сек (1536 SPF)
    Битовая глубина : 16 бит
    Метод сжатия : С потерями
    Задержка видео : -38 мс.
    Размер потока : 195 Мбайт (0%)
    Заголовок : AC3 2.0 @ 192 kbps - (Многоголосый), Новий канал
    Язык : Ukrainian
    ServiceKind/String : Complete Main
    Default : Нет
    Forced : Нет
    Аудио #6
    Идентификатор : 7
    Формат : AC-3
    Формат/Информация : Audio Coding 3
    Параметр Endianness формата : Big
    Идентификатор кодека : A_AC3
    Продолжительность : 2 ч. 21 м.
    Вид битрейта : Постоянный
    Битрейт : 192 Кбит/сек
    Каналы : 2 канала
    Расположение каналов : Front: L R
    Частота : 48, 0 КГц
    Частота кадров : 31, 250 кадров/сек (1536 SPF)
    Битовая глубина : 16 бит
    Метод сжатия : С потерями
    Задержка видео : -38 мс.
    Размер потока : 195 Мбайт (0%)
    Заголовок : AC3 2.0 @ 192 kbps - (Многоголосый), 1+1
    Язык : Ukrainian
    ServiceKind/String : Complete Main
    Default : Нет
    Forced : Нет
    Аудио #7
    Идентификатор : 8
    Формат : AC-3
    Формат/Информация : Audio Coding 3
    Параметр Endianness формата : Big
    Идентификатор кодека : A_AC3
    Продолжительность : 2 ч. 21 м.
    Вид битрейта : Постоянный
    Битрейт : 192 Кбит/сек
    Каналы : 2 канала
    Расположение каналов : Front: L R
    Частота : 48, 0 КГц
    Частота кадров : 31, 250 кадров/сек (1536 SPF)
    Битовая глубина : 16 бит
    Метод сжатия : С потерями
    Задержка видео : -38 мс.
    Размер потока : 195 Мбайт (0%)
    Заголовок : AC3 2.0 @ 192 kbps - (Многоголосый), Інтер
    Язык : Ukrainian
    ServiceKind/String : Complete Main
    Default : Нет
    Forced : Нет
    Аудио #8
    Идентификатор : 9
    Формат : DTS
    Формат/Информация : Digital Theater Systems
    Режим : 16
    Параметр Endianness формата : Big
    Идентификатор кодека : A_DTS
    Продолжительность : 2 ч. 21 м.
    Вид битрейта : Постоянный
    Битрейт : 1510 Кбит/сек
    Каналы : 6 каналов
    Расположение каналов : Front: L C R, Side: L R, LFE
    Частота : 48, 0 КГц
    Частота кадров : 93, 750 кадра/сек (512 SPF)
    Битовая глубина : 24 бит
    Метод сжатия : С потерями
    Задержка видео : -38 мс.
    Размер потока : 1, 49 Гбайт (2%)
    Заголовок : DTS 5.1 @ 1536 kbps English
    Язык : English
    Default : Нет
    Forced : Нет
    Аудио #9
    Идентификатор : 10
    Формат : DTS
    Формат/Информация : Digital Theater Systems
    Профиль формата : X/MA/Core
    Режим : 16
    Параметр Endianness формата : Big
    Идентификатор кодека : A_DTS
    Продолжительность : 2 ч. 21 м.
    Вид битрейта : Переменный/Переменный/Постоянный
    Битрейт : 4228 Кбит/сек/4228 Кбит/сек/1509 Кбит/сек
    Каналы : Object Based/8 каналов/6 каналов
    Расположение каналов : Object Based/Front: L C R, Side: L R, Back: L R, LFE/Front: L C R, Side: L R, LFE
    Частота : /48, 0 КГц/48, 0 КГц
    Частота кадров : 93, 750 кадра/сек (512 SPF)
    Битовая глубина : /24 бит/24 бит
    Метод сжатия : /Lossless/Lossy
    Задержка видео : -28 мс.
    Размер потока : 4, 18 Гбайт (6%)
    Заголовок : DTS-HD MA ORIGINAL
    Язык : English
    Default : Нет
    Forced : Нет
    Аудио #10
    Идентификатор : 11
    Формат : DTS
    Формат/Информация : Digital Theater Systems
    Профиль формата : MA/Core
    Режим : 16
    Параметр Endianness формата : Big
    Идентификатор кодека : A_DTS
    Продолжительность : 2 ч. 21 м.
    Вид битрейта : Переменный/Постоянный
    Битрейт : 2209 Кбит/сек/1509 Кбит/сек
    Каналы : 6 каналов
    Расположение каналов : Front: L C R, Side: L R, LFE
    Частота : 48, 0 КГц
    Частота кадров : 93, 750 кадра/сек (512 SPF)
    Битовая глубина : 16 бит
    Метод сжатия : Без потерь/Lossy
    Задержка видео : -28 мс.
    Размер потока : 2, 19 Гбайт (3%)
    Заголовок : DTS-HD MA GERMAN
    Язык : German
    Default : Нет
    Forced : Нет
    Текст #1
    Идентификатор : 12
    Формат : UTF-8
    Идентификатор кодека : S_TEXT/UTF8
    Идентификатор кодека/Информация : UTF-8 Plain Text
    Продолжительность : 2 ч. 10 м.
    Битрейт : 0 бит/сек
    ElementCount : 3
    Размер потока : 98, 0 байт (0%)
    Заголовок : RUS (forced)
    Язык : Russian
    Default : Да
    Forced : Да
    Текст #2
    Идентификатор : 13
    Формат : UTF-8
    Идентификатор кодека : S_TEXT/UTF8
    Идентификатор кодека/Информация : UTF-8 Plain Text
    Продолжительность : 2 ч. 21 м.
    Битрейт : 76 бит/сек
    ElementCount : 1408
    Размер потока : 79, 4 Кбайт (0%)
    Заголовок : RUS (full)
    Язык : Russian
    Default : Нет
    Forced : Нет
    Текст #3
    Идентификатор : 14
    Формат : UTF-8
    Идентификатор кодека : S_TEXT/UTF8
    Идентификатор кодека/Информация : UTF-8 Plain Text
    Продолжительность : 2 ч. 8 м.
    Битрейт : 54 бит/сек
    ElementCount : 1401
    Размер потока : 51, 2 Кбайт (0%)
    Заголовок : ENG
    Язык : English
    Default : Нет
    Forced : Нет
    Текст #4
    Идентификатор : 15
    Формат : UTF-8
    Идентификатор кодека : S_TEXT/UTF8
    Идентификатор кодека/Информация : UTF-8 Plain Text
    Продолжительность : 2 ч. 21 м.
    Битрейт : 72 бит/сек
    ElementCount : 1408
    Размер потока : 74, 9 Кбайт (0%)
    Заголовок : UKR (Full)
    Язык : Ukrainian
    Default : Нет
    Forced : Нет
    Текст #5
    Идентификатор : 16
    Формат : UTF-8
    Идентификатор кодека : S_TEXT/UTF8
    Идентификатор кодека/Информация : UTF-8 Plain Text
    Продолжительность : 2 ч. 20 м.
    Битрейт : 49 бит/сек
    ElementCount : 1405
    Размер потока : 51, 0 Кбайт (0%)
    Язык : English
    Default : Нет
    Forced : Нет
    Меню
    00: 00: 00.000 : en: Chapter 1
    00: 01: 40.100 : en: Chapter 2
    00: 06: 36.229 : en: Chapter 3
    00: 12: 45.931 : en: Chapter 4
    00: 14: 52.516 : en: Chapter 5
    00: 16: 12.513 : en: Chapter 6
    00: 18: 56.218 : en: Chapter 7
    00: 23: 50.387 : en: Chapter 8
    00: 28: 50.729 : en: Chapter 9
    00: 31: 21.838 : en: Chapter 10
    00: 38: 50.161 : en: Chapter 11
    00: 44: 45.724 : en: Chapter 12
    00: 47: 37.813 : en: Chapter 13
    00: 49: 39.935 : en: Chapter 14
    00: 53: 43.345 : en: Chapter 15
    00: 57: 28.403 : en: Chapter 16
    01: 01: 23.721 : en: Chapter 17
    01: 03: 23.758 : en: Chapter 18
    01: 07: 10.985 : en: Chapter 19
    01: 11: 53.475 : en: Chapter 20
    01: 19: 10.078 : en: Chapter 21
    01: 22: 29.945 : en: Chapter 22
    01: 27: 29.202 : en: Chapter 23
    01: 30: 13.366 : en: Chapter 24
    01: 34: 19.028 : en: Chapter 25
    01: 36: 57.228 : en: Chapter 26
    01: 42: 24.471 : en: Chapter 27
    01: 45: 40.334 : en: Chapter 28
    01: 50: 03.597 : en: Chapter 29
    01: 55: 33.343 : en: Chapter 30
    02: 00: 07.408 : en: Chapter 31
    02: 03: 16.055 : en: Chapter 32
    02: 06: 02.513 : en: Chapter 33
    02: 08: 42.923 : en: Chapter 34
    02: 09: 47.404 : en: Chapter 35
    YouTube

    Скриншоты для ознакомления


    Релизы фильма Гарри Поттер и узник Азкабана/Harry Potter and the Prisoner of Azkaban на NNM Club
    Время раздачи: с 9: 00 до 23: 00


    Онлайн видео Гарри Поттер и узник Азкабана



    Гарри Поттер и узник Азкабана/Harry Potter and the Prisoner of Azkaban (2004) UHD BDRemux [H.265/2160p] [4K, HDR, 10-bit]
    Рейтинг →
     (голосов: 1, оценка 3/5, голосовать можно 1 раз )

    Другие торренты по теме:

  • Гарри Поттер и Кубок огня / Harry Potter and the Goblet of Fire (2005) HDRip [H.264] [Ultimate Cut]
  • Гарри Поттер и Орден Феникса / Harry Potter and the Order of the Phoenix (2007) HDRip [H.264] [Ultimate Cut]
  • Джоан Роулинг | Гарри Поттер и Кубок огня [2008] [M4B | AAC] скачать через торрент бесплатно
  • Джоан Роулинг | Гарри Поттер и Дары Смерти [2011] [M4B | AAC] скачать через торрент бесплатно
  • Джоан Роулинг | Гарри Поттер и Принц-полукровка [2011] [M4B | AAC] скачать через торрент бесплатно
  • Джоан Роулинг | Гарри Поттер и Орден Феникса [2008] [M4B | AAC] скачать через торрент бесплатно
  • Джоан Роулинг | Гарри Поттер и узник Азкабана [2006] [M4B | AAC] скачать через торрент бесплатно
  • Джоан Роулинг | Гарри Поттер и Тайная комната [2006] [M4B | AAC] скачать через торрент бесплатно


    • Комментарии (0):

      Информация

      Информация

        Посетители, находящиеся в группе Гости, не могут оставлять комментарии в данной новости.

        ↓ Меню




        ↓ Опрос

        Вы добавили сайт в закладки?
        Да
        Нет


        Top 10 за месяц (Фильмы)