.
Авторизация | Регистрация
Хочешь лучшие торренты? Добавь свой email!
Добавить

Торрент скачать бесплатно

  • support: webmaster@btracker.org
» » Со дна вершины (2017) WEB-DLRip торрент скачать бесплатно


    Со дна вершины (2017) WEB-DLRip торрент скачать бесплатно

    Опубликовал: Админ | Дата: 3-04-2018, 05:00 | .torrent скачали: 2

    Со дна вершины (2017) WEB-DLRipПроизводство: Россия, Продюсерский центр Альтаир-Ц
    Жанр: драма, спорт
    Режиссер: Яна Поляруш, Тамара Цоцория, Константин Кутуев

    Актеры
    Павел Шевандо, Владимир Вдовиченков, Ксения Кузнецова, Сергей Никоненко, Константин Белошапка, Наталья Бергер, Ирина Розанова, Сергей Пускепалис, Нонна Гришаева, Никита Салопин

    Описание

    Алексей Царёв - семнадцатилетний лидер школы и подающий большие надежды чемпион юношеской сборной по горным лыжам. У Алексея есть любимая девушка Лина и друг Костя, его соперник и в спорте, и в любви. Алексей - первый во всём. Он уверен в себе, не умеет и не желает проигрывать. Но всё меняется в один миг. После трагической случайности, которая происходит с Алексеем по вине Кости, их дружбе предстоит пройти проверку на прочность. Но сила духа, добро и любовь помогут перенести все испытания судьбы и приведут каждого к своей победе.

    Возраст: 12+ (зрителям, достигшим 12 лет)
    Дата российской премьеры: 1 марта 2018, Централ Партнершип
    Продолжительность: 01: 51: 16
    Качество видео: WEB-DLRip
    Перевод: Не требуется (русский) iTunes
    Субтитры: отсутствуют
    Видео: Xvid, 720x384, ~1366 Kbps
    Аудио: AC3, 6 ch, 384 Kbps
    Общее
    Полное имя : F: So.dna.vershiny.2O18.O.WEB-DLRip.NNM-CLUB.avi
    Формат : AVI
    Формат/Информация : Audio Video Interleave
    Размер файла : 1, 37 Гбайт
    Продолжительность : 1 ч. 51 м.
    Общий поток : 1759 Кбит/сек
    Название фильма : C0.2Ha.B3pW1Hy.2O18.O.WEB-DLRip.14OOMB
    Программа кодирования : VirtualDubMod 1.5.10.2 (build 2540/release)
    Формат оригинала/Имя : Movie
    Видео
    Идентификатор : 0
    Формат : MPEG-4 Visual
    Профиль формата : Advanced Simple@L5
    Параметр BVOP формата : 2
    Параметр QPel формата : Нет
    Параметр GMC формата : Без точки перехода
    Параметр матрицы формата : Default (MPEG)
    Идентификатор кодека : XVID
    Идентификатор кодека/Подсказка : XviD
    Продолжительность : 1 ч. 51 м.
    Битрейт : 1366 Кбит/сек
    Ширина : 720 пикселей
    Высота : 384 пикселя
    Соотношение сторон : 1, 85: 1
    Частота кадров : 23, 976 (24000/1001) кадра/сек
    Цветовое пространство : YUV
    Субдискретизация насыщенности : 4: 2: 0
    Битовая глубина : 8 бит
    Тип развёртки : Прогрессивная
    Метод сжатия : С потерями
    Бит/(Пиксели*Кадры) : 0.206
    Размер потока : 1, 06 Гбайт (78%)
    Библиотека кодирования : XviD 1.2.1 (UTC 2008-12-04)
    Аудио
    Идентификатор : 1
    Формат : AC-3
    Формат/Информация : Audio Coding 3
    Расширение режима : CM (complete main)
    Параметр Endianness формата : Big
    Идентификатор кодека : 2000
    Продолжительность : 1 ч. 51 м.
    Вид битрейта : Постоянный
    Битрейт : 384 Кбит/сек
    Каналы : 6 каналов
    Расположение каналов : Front: L C R, Side: L R, LFE
    Частота : 48, 0 КГц
    Частота кадров : 31, 250 кадров/сек (1536 spf)
    Битовая глубина : 16 бит
    Метод сжатия : С потерями
    Размер потока : 306 Мбайт (22%)
    Выравнивание : Разделение по промежуткам
    Продолжительность промежутка : 42 мс. (1, 00 видеокадр)
    Время предзагрузки промежутка : 500 мс.

    Скриншоты для ознакомления



    Все одноименные релизы в Клубе
    Время раздачи: 24/7 до 10 скачавших


    Онлайн видео Со дна вершины (2017) WEB



    Со дна вершины (2017) WEB-DLRip
    Рейтинг →
     (голосов: 1, оценка 3/5, голосовать можно 1 раз )

    Другие торренты по теме:

  • Со дна вершины (2017) WEB-DLRip [H.264]


    • Комментарии (0):

      Информация

      Информация

        Посетители, находящиеся в группе Гости, не могут оставлять комментарии в данной новости.

        ↓ Меню




        ↓ Опрос

        Вы добавили сайт в закладки?
        Да
        Нет


        Top 10 за месяц (Фильмы)