.
Авторизация | Регистрация
Хочешь лучшие торренты? Добавь свой email!
Добавить

Торрент скачать бесплатно

  • support: webmaster@btracker.org
» » Ушедшие дни / Gone Are the Days (2018) HDRip [MVO] [AD] торрент скачать бесплатно


    Ушедшие дни / Gone Are the Days (2018) HDRip [MVO] [AD] торрент скачать бесплатно

    Опубликовал: Админ | Дата: 3-04-2018, 05:00 | .torrent скачали: 2

    Ушедшие дни / Gone Are the Days (2018) HDRip [MVO] [AD]Производство: США/Directional Entertainment
    Жанр: Вестерн
    Режиссер: Марк Ландре Гулд

    Актеры
    Дэнни Трехо, Том Беренджер, Лэнс Хенриксен, Лулу Уилсон, Стив Рейлсбэк, Мэг Чэмберс Стидл, Крис Романо, Джейми МакШейн, Билли Лаш, Картер Хатингс

    Описание

    Фильм рассказывает историю пожилого и больного разбойника Тэйлона Флинна. Тэйлон понимает, что жить ему осталось недолго, и перед смертью решает спасти свою дочь, которую он когда-то бросил, от нелегкой судьбы. Чтобы это сделать, ему придётся снова встретиться лицом к лицу со старыми врагами прошлого.

    Рейтинг MPAA: R (лицам до 17 лет обязательно присутствие взрослого)
    Дата мировой премьеры: 16 марта 2018
    Продолжительность: 01: 39: 49
    Качество видео: HDRip
    Перевод: Многоголосый закадровый, любительский (Синема УС)
    Субтитры: Отсутствуют
    Реклама: Присутствуют вставки текстовой рекламы
    Видео: XviD, 720x304, ~1543 Kbps
    Аудио: AC-3, 2 ch, 448 Kbps

    Общее
    Полное имя : E: NNMУшедшие дниGone Are the Days 2018 HDRip.avi
    Формат : AVI
    Формат/Информация : Audio Video Interleave
    Профиль формата : OpenDML
    Размер файла : 1, 40 Гбайт
    Продолжительность : 1 ч. 39 м.
    Общий поток : 2003 Кбит/сек
    Видео
    Идентификатор : 0
    Формат : MPEG-4 Visual
    Профиль формата : Advanced Simple@L5
    Настройки формата : BVOP2
    Параметр BVOP формата : 2
    Параметр QPel формата : Нет
    Параметр GMC формата : Без точки перехода
    Параметр матрицы формата : Default (MPEG)
    Идентификатор кодека : XVID
    Идентификатор кодека/Подсказка : XviD
    Продолжительность : 1 ч. 39 м.
    Битрейт : 1543 Кбит/сек
    Ширина : 720 пикселей
    Высота : 304 пикселя
    Соотношение сторон : 2, 35: 1
    Частота кадров : 23, 976 (24000/1001) кадра/сек
    Цветовое пространство : YUV
    Субдискретизация насыщенности : 4: 2: 0
    Битовая глубина : 8 бит
    Тип развёртки : Прогрессивная
    Метод сжатия : С потерями
    Бит/(Пиксели*Кадры) : 0.294
    Размер потока : 1, 08 Гбайт (77%)
    Библиотека кодирования : XviD 1.2.1 (UTC 2008-12-04)
    Аудио
    Идентификатор : 1
    Формат : AC-3
    Формат/Информация : Audio Coding 3
    Идентификатор кодека : 2000
    Продолжительность : 1 ч. 39 м.
    Вид битрейта : Постоянный
    Битрейт : 448 Кбит/сек
    Каналы : 2 канала
    Расположение каналов : Front: L R
    Частота : 48, 0 КГц
    Частота кадров : 31, 250 кадров/сек (1536 SPF)
    Битовая глубина : 16 бит
    Метод сжатия : С потерями
    Размер потока : 319 Мбайт (22%)
    Выравнивание : Соединение по промежуткам
    Продолжительность промежутка : 32 мс. (0, 77 видеокадр)
    ServiceKind/String : Complete Main

    Скриншоты для ознакомления



    Все одноименные релизы в Клубе Время раздачи: 24/7 (до появления первых 10 скачавших)


    Онлайн видео Ушедшие дни



    Ушедшие дни/Gone Are the Days (2018) HDRip [MVO] [AD]
    Рейтинг →
     (голосов: 1, оценка 4/5, голосовать можно 1 раз )

    Другие торренты по теме:

  • Ушедшие дни / Gone Are the Days (2018) HDRip [MVO]
  • Ушедшие дни / Gone Are the Days (2018) BDRip [H.264] [MVO]


    • Комментарии (0):

      Информация

      Информация

        Посетители, находящиеся в группе Гости, не могут оставлять комментарии в данной новости.

        ↓ Меню




        ↓ Опрос

        Вы добавили сайт в закладки?
        Да
        Нет


        Top 10 за месяц (Фильмы)