.
Авторизация | Регистрация
Хочешь лучшие торренты? Добавь свой email!
Добавить

Торрент скачать бесплатно

» » Со дна вершины (2017) WEB-DLRip [H.264] торрент скачать бесплатно


    Со дна вершины (2017) WEB-DLRip [H.264] торрент скачать бесплатно

    Опубликовал: Админ | Дата: 3-04-2018, 05:00 | .torrent скачали: 1

    Со дна вершины (2017) WEB-DLRip [H.264]Производство: Россия/Продюсерский центр Альтаир-Ц, Централ Партнершип
    Жанр: Драма, спорт
    Режиссер: Яна Поляруш, Тамара Цоцория, Константин Кутуев

    Актеры
    Павел Шевандо, Владимир Вдовиченков, Ксения Кузнецова, Сергей Никоненко, Константин Белошапка, Наталья Бергер, Ирина Розанова, Сергей Пускепалис, Нонна Гришаева, Никита Салопин

    Описание

    Алексей Царёв - семнадцатилетний лидер школы и подающий большие надежды чемпион юношеской сборной по горным лыжам. У Алексея есть любимая девушка Лина и друг Костя, его соперник и в спорте, и в любви. Алексей - первый во всём. Он уверен в себе, не умеет и не желает проигрывать. Но всё меняется в один миг. После трагической случайности, которая происходит с Алексеем по вине Кости, их дружбе предстоит пройти проверку на прочность. Но сила духа, добро и любовь помогут перенести все испытания судьбы и приведут каждого к своей победе.

    Возраст: 12+ (зрителям, достигшим 12 лет)
    Дата премьеры в России: 1 марта 2018
    Цифровой релиз: 2 апреля 2018

    Релиз от: NNM-Club
    Продолжительность: 01: 51: 15
    Качество видео: WEB-DLRip (AVC)
    Перевод: Не требуется (язык русский)
    Субтитры: Отсутствуют
    Видео: AVC/H.264, 1024x544, ~1485 Kbps
    Аудио: AC-3, 6 ch, 384 Kbps

    Общее
    Уникальный идентификатор : 196577556003274649210564609723900552540 (0x93E375CC65E5D3BAA0E6D9282B7AE55C)
    Полное имя : E: NNMСо дна вершиныSo dna vershiny 2017 WEB-DLRip AVC NNM-Club.mkv
    Формат : Matroska
    Версия формата : Version 2
    Размер файла : 1, 45 Гбайт
    Продолжительность : 1 ч. 51 м.
    Общий поток : 1870 Кбит/сек
    Дата кодирования : UTC 2018-04-02 16: 39: 48
    Программа кодирования : mkvmerge v7.8.0 (\'River Man\') 32bit built on Apr 3 2015 12: 11: 22
    Библиотека кодирования : libebml v1.3.1 + libmatroska v1.4.2
    Видео
    Идентификатор : 1
    Формат : AVC
    Формат/Информация : Advanced Video Codec
    Профиль формата : High@L4.1
    Настройки формата : CABAC/12 Ref Frames
    Параметр CABAC формата : Да
    Параметр RefFrames формата : 12 кадров
    Идентификатор кодека : V_MPEG4/ISO/AVC
    Продолжительность : 1 ч. 51 м.
    Битрейт : 1485 Кбит/сек
    Ширина : 1024 пикселя
    Высота : 544 пикселя
    Соотношение сторон : 1, 882
    Режим частоты кадров : Постоянный
    Частота кадров : 23, 976 кадра/сек
    Цветовое пространство : YUV
    Субдискретизация насыщенности : 4: 2: 0
    Битовая глубина : 8 бит
    Тип развёртки : Прогрессивная
    Бит/(Пиксели*Кадры) : 0.111
    Размер потока : 1, 13 Гбайт (77%)
    Библиотека кодирования : x264 core 146 r2538 121396c
    Настройки программы : cabac=1/ref=12/deblock=1: -3: -3/analyse=0x3: 0x113/me=umh/subme=11/psy=1/psy_rd=1.00: 0.15/mixed_ref=1/me_range=32/chroma_me=1/trellis=2/8x8dct=1/cqm=0/deadzone=21, 11/fast_pskip=0/chroma_qp_offset=-3/threads=12/lookahead_threads=2/sliced_threads=0/nr=0/decimate=0/interlaced=0/bluray_compat=0/constrained_intra=0/bframes=8/b_pyramid=2/b_adapt=2/b_bias=0/direct=1/weightb=1/open_gop=0/weightp=2/keyint=240/keyint_min=23/scenecut=40/intra_refresh=0/rc_lookahead=40/rc=2pass/mbtree=0/bitrate=1485/ratetol=1.0/qcomp=0.60/qpmin=0/qpmax=69/qpstep=4/cplxblur=20.0/qblur=0.5/vbv_maxrate=50000/vbv_bufsize=62500/nal_hrd=none/filler=0/ip_ratio=1.40/pb_ratio=1.30/aq=1: 0.90
    Default : Да
    Forced : Нет
    Аудио
    Идентификатор : 2
    Формат : AC-3
    Формат/Информация : Audio Coding 3
    Идентификатор кодека : A_AC3
    Продолжительность : 1 ч. 51 м.
    Вид битрейта : Постоянный
    Битрейт : 384 Кбит/сек
    Каналы : 6 каналов
    Расположение каналов : Front: L C R, Side: L R, LFE
    Частота : 48, 0 КГц
    Частота кадров : 31, 250 кадров/сек (1536 SPF)
    Битовая глубина : 16 бит
    Метод сжатия : С потерями
    Размер потока : 306 Мбайт (21%)
    ServiceKind/String : Complete Main
    Default : Да
    Forced : Нет

    Скриншоты для ознакомления



    Все одноименные релизы в Клубе Время раздачи: Круглосуточно до 10 скачавших


    Онлайн видео Со дна вершины (2017) WEB



    Со дна вершины (2017) WEB-DLRip [H.264]
    Рейтинг →
     (голосов: 1, оценка 5/5, голосовать можно 1 раз )

    Другие торренты по теме:

  • Со дна вершины (2017) WEB-DLRip


    • Комментарии (0):

      Информация

      Информация

        Посетители, находящиеся в группе Гости, не могут оставлять комментарии в данной новости.

        ↓ Меню




        ↓ Опрос

        Вы добавили сайт в закладки?
        Да
        Нет


        Top 10 за месяц (Фильмы)