.
Авторизация | Регистрация
Хочешь лучшие торренты? Добавь свой email!
Добавить

Торрент скачать бесплатно

» » Первый поединок / First Match (2018) WEB-DLRip [MVO] [AD] торрент скачать бесплатно


    Первый поединок / First Match (2018) WEB-DLRip [MVO] [AD] торрент скачать бесплатно

    Опубликовал: Админ | Дата: 3-04-2018, 05:00 | .torrent скачали: 1

    Первый поединок / First Match (2018) WEB-DLRip [MVO] [AD]Производство: США/Clubhouse Pictures (II)
    Жанр: Драма
    Режиссер: Оливия Ньюман

    Актеры
    Эльвира Эммануэль, Магга, Яхья Абдул-Матин II, Колман Доминго, Джаррель Джером, Ким Рамирес, Джаред Кемп, Иса Дэвис, Аллен Мальдонадо

    Описание

    История девушки Моники из старшей школы, которая пробует перенаправить проблемы с гневом в занятия по рестлингу. По примеру отца, бывшего рестлера, она занимается, тренируясь в мужской команде, наравне со всеми. Всё усложняет отсутствие дома, бедность и сомнительные дела её папы, рестлера Короля Ди.

    Дата мировой премьеры: 12 марта 2018
    Продолжительность: 01: 41: 45
    Качество видео: WEB-DLRip
    Перевод: Многоголосый закадровый, любительский (Синема УС)
    Субтитры: Отсутствуют
    Реклама: Присутствуют вставки текстовой рекламы
    Видео: XviD, 720x400, ~1636 Kbps
    Аудио: AC-3, 2 ch, 192 Kbps

    Общее
    Полное имя : E: NNMПервый поединокFirst Match 2018 WEB-DLRip.avi
    Формат : AVI
    Формат/Информация : Audio Video Interleave
    Профиль формата : OpenDML
    Размер файла : 1, 31 Гбайт
    Продолжительность : 1 ч. 41 м.
    Общий поток : 1840 Кбит/сек
    Видео
    Идентификатор : 0
    Формат : MPEG-4 Visual
    Профиль формата : Advanced Simple@L5
    Настройки формата : BVOP2
    Параметр BVOP формата : 2
    Параметр QPel формата : Нет
    Параметр GMC формата : Без точки перехода
    Параметр матрицы формата : Default (H.263)
    Идентификатор кодека : XVID
    Идентификатор кодека/Подсказка : XviD
    Продолжительность : 1 ч. 41 м.
    Битрейт : 1636 Кбит/сек
    Ширина : 720 пикселей
    Высота : 400 пикселей
    Соотношение сторон : 16: 9
    Частота кадров : 23, 976 (24000/1001) кадра/сек
    Цветовое пространство : YUV
    Субдискретизация насыщенности : 4: 2: 0
    Битовая глубина : bit0
    Тип развёртки : Прогрессивная
    Метод сжатия : С потерями
    Бит/(Пиксели*Кадры) : 0.237
    Размер потока : 1, 16 Гбайт (89%)
    Библиотека кодирования : XviD 1.2.1 (UTC 2008-12-04)
    Аудио
    Идентификатор : 1
    Формат : AC-3
    Формат/Информация : Audio Coding 3
    Идентификатор кодека : 2000
    Продолжительность : 1 ч. 41 м.
    Вид битрейта : Постоянный
    Битрейт : 192 Кбит/сек
    Каналы : 2 канала
    Расположение каналов : Front: L R
    Частота : 48, 0 КГц
    Частота кадров : 31, 250 кадров/сек (1536 SPF)
    Битовая глубина : 16 бит
    Метод сжатия : С потерями
    Размер потока : 140 Мбайт (10%)
    Выравнивание : Соединение по промежуткам
    Продолжительность промежутка : 32 мс. (0, 77 видеокадр)
    ServiceKind/String : Complete Main

    Скриншоты для ознакомления



    Все одноименные релизы в Клубе Время раздачи: 24/7 (до появления первых 3-5 скачавших)


    Онлайн видео Первый поединок



    Первый поединок/First Match (2018) WEB-DLRip [MVO] [AD]
    Рейтинг →
     (голосов: 1, оценка 4/5, голосовать можно 1 раз )

    Другие торренты по теме:

  • Henry Jackman & VA - Люди Икс Первый класс / X-Men: First Class (Complete Score + Unofficial) (2011)
  • Мальчишник: Первый опыт / Milf (2010) BDRip [H.264 / 720p-LQ] скачать через торрент бесплатно
  • Первый раз / Di yi ci (2012) BDRip [720p] ATV скачать через торрент бесплатно
  • Первый рейс (1976) SATRip скачать через торрент бесплатно
  • Версия альтернативная: Первый выстрел Первой мировой (2014) HDTVRip [H.264 / 720p] скачать через торрент бесплатно
  • Ookami to Koushinryou / Spice and Wolf / Волчица и пряности (первый сезон) [2008, TV, 13 эп.] BDRip 1080p raw + rus
  • Александр Заморин | Мой первый зеркальный Canon (2012) PCRec
  • Книжная серия | Первый ряд [101 книга] (2001-2013) [FB2]


    • Комментарии (0):

      Информация

      Информация

        Посетители, находящиеся в группе Гости, не могут оставлять комментарии в данной новости.

        ↓ Меню




        ↓ Опрос

        Вы добавили сайт в закладки?
        Да
        Нет


        Top 10 за месяц (Фильмы)