.
Авторизация | Регистрация
Хочешь лучшие торренты? Добавь свой email!
Добавить

Торрент скачать бесплатно

» » Недруги / Hostiles (2017) WEB-DLRip [Line] [AD] торрент скачать бесплатно


    Недруги / Hostiles (2017) WEB-DLRip [Line] [AD] торрент скачать бесплатно

    Опубликовал: Админ | Дата: 3-04-2018, 05:00 | .torrent скачали: 3

    Недруги / Hostiles (2017) WEB-DLRip [Line] [AD]Производство: США/Grisbi Productions, Le, Waypoint Entertainment
    Жанр: Драма, приключения, вестерн
    Режиссер: Скотт Купер

    Актеры
    Скотт Шеперд, Розамунд Пайк, Ава Купер, Стелла Купер, Дэвид Мидфандер, Кристиан Бэйл, Рори Кокрейн, Джонатан Мэйджерс, Джон Бенжамин Хикки

    Описание

    Когда на твоих глазах льется кровь, когда ты вынужден убивать, ты превращаешься в зверя... После долгих лет войны он дышал злобой, проклинал краснокожих, в каждом из них он видел врага. На исходе войны капитан Блокер получает приказ доставить на родину в Монтану умирающего вождя по кличке Желтый Ястреб. В цепях и кандалах он ведет семью индейцев через земли, где обитают враждебные племена и скрываются беглые преступники, где за каждым камнем поджидает смертельная опасность. Где-то на пути к отряду Блокера пристает обезумевшая от горя вдова, на глазах которой команчи убили ее мужа и детей. Эта встреча меняет всё...

    Возраст: 18+ (зрителям, достигшим 18 лет. запрещено для детей)
    Рейтинг MPAA: R (лицам до 17 лет обязательно присутствие взрослого)
    Дата мировой премьеры: 2 сентября 2017
    Дата премьеры в России: 15 февраля 2018

    Продолжительность: 02: 12: 28
    Качество видео: WEB-DLRip
    Перевод: Дублированный (Чистый звук)
    Субтитры: Отсутствуют
    Реклама: Присутствуют вставки текстовой рекламы!
    Видео: XviD, 720x304, ~1259 Kbps
    Аудио: AC-3, 2 ch, 192 Kbps

    Общее
    Полное имя : E: NNMНедругиNedrugi 2017 WEB-DLRip.avi
    Формат : AVI
    Формат/Информация : Audio Video Interleave
    Профиль формата : OpenDML
    Размер файла : 1, 35 Гбайт
    Продолжительность : 2 ч. 12 м.
    Общий поток : 1464 Кбит/сек
    Видео
    Идентификатор : 0
    Формат : MPEG-4 Visual
    Профиль формата : Advanced Simple@L5
    Настройки формата : BVOP2
    Параметр BVOP формата : 2
    Параметр QPel формата : Нет
    Параметр GMC формата : Без точки перехода
    Параметр матрицы формата : Default (H.263)
    Идентификатор кодека : XVID
    Идентификатор кодека/Подсказка : XviD
    Продолжительность : 2 ч. 12 м.
    Битрейт : 1259 Кбит/сек
    Ширина : 720 пикселей
    Высота : 304 пикселя
    Соотношение сторон : 2, 35: 1
    Частота кадров : 23, 976 (24000/1001) кадра/сек
    Цветовое пространство : YUV
    Субдискретизация насыщенности : 4: 2: 0
    Битовая глубина : bit0
    Тип развёртки : Прогрессивная
    Метод сжатия : С потерями
    Бит/(Пиксели*Кадры) : 0.240
    Размер потока : 1, 17 Гбайт (86%)
    Библиотека кодирования : XviD 1.2.1 (UTC 2008-12-04)
    Аудио
    Идентификатор : 1
    Формат : AC-3
    Формат/Информация : Audio Coding 3
    Идентификатор кодека : 2000
    Продолжительность : 2 ч. 12 м.
    Вид битрейта : Постоянный
    Битрейт : 192 Кбит/сек
    Каналы : 2 канала
    Расположение каналов : Front: L R
    Частота : 48, 0 КГц
    Частота кадров : 31, 250 кадров/сек (1536 SPF)
    Битовая глубина : 16 бит
    Метод сжатия : С потерями
    Размер потока : 182 Мбайт (13%)
    Выравнивание : Соединение по промежуткам
    Продолжительность промежутка : 32 мс. (0, 77 видеокадр)
    ServiceKind/String : Complete Main

    Скриншоты для ознакомления



    Все одноименные релизы в Клубе Время раздачи: Круглосуточно до 10 скачавших


    Онлайн видео Недруги



    Недруги/Hostiles (2017) WEB-DLRip [Line] [AD]
    Рейтинг →
     (голосов: 1, оценка 3/5, голосовать можно 1 раз )

    Другие торренты по теме:

  • Недруги / Hostiles (2017) TS [AD]
  • Недруги / Hostiles (2017) WEB-DL [H.264 / 1080p-LQ]
  • Недруги / Hostiles (2017) WEB-DL [H.264 / 720p-LQ]
  • Недруги / Hostiles (2017) WEB-DLRip [H.264]
  • Недруги / Hostiles (2017) WEB-DLRip
  • Недруги / Hostiles (2017) WEB-DL [H.264 / 1080p-LQ]
  • Недруги / Hostiles (2017) BDRip [H.264 / 720p-LQ]
  • Недруги / Hostiles (2017) BDRip [H264 / 1080p]


    • Комментарии (0):

      Информация

      Информация

        Посетители, находящиеся в группе Гости, не могут оставлять комментарии в данной новости.

        ↓ Меню




        ↓ Опрос

        Вы добавили сайт в закладки?
        Да
        Нет


        Top 10 за месяц (Фильмы)