.
Авторизация | Регистрация
Хочешь лучшие торренты? Добавь свой email!
Добавить

Торрент скачать бесплатно

» » Я сражаюсь с великанами / I Kill Giants (2017) WEB-DLRip [H.264 / 1080p-LQ] [MVO] торрент скачать бесплатно


    Я сражаюсь с великанами / I Kill Giants (2017) WEB-DLRip [H.264 / 1080p-LQ] [MVO] торрент скачать бесплатно

    Опубликовал: Админ | Дата: 3-04-2018, 05:00 | .torrent скачали: 0

    Я сражаюсь с великанами / I Kill Giants (2017) WEB-DLRip [H.264 / 1080p-LQ] [MVO]Производство: Бельгия, Великобритания, США/1492 Pictures, Having Me Films
    Жанр: Драма, Триллер, Фэнтези
    Режиссер: Андерс Вальтер Хансен

    Актеры
    Мэдисон Вульф, Зои Салдана, Имоджен Путс, Сидни Вэйд, Рори Джексон, Аллана О’Коннор, Майя Питерс, Арт Паркинсон, Дженнифер Эль, Дон Вичерли

    Описание

    Барбара Торсон — особенная, ее уникальный талант — это возможность видеть мир великанов. И этот мир угрожает людям. Барбаре никто не верит, но она единственная, кто может спасти человечество от исчезновения. Она объявляет великанам войну и готовится к главному сражению в своей жизни.

    Возраст: 12+ (зрителям, достигшим 12 лет)
    Дата мировой премьеры: 9 сентября 2017
    Дата российской премьеры: 29 марта 2018 Экспонента
    Продолжительность: 01: 46: 30
    Качество видео: WEB-DLRip
    Перевод: Многоголосый закадровый, любительский (HDrezka Studio)
    Субтитры: Русские, Английские
    Видео: AVC/H.264, 1912x800, 4395 Kbps
    Аудио#1: AC3, 2 ch, 192 Kbps/Русский
    Аудио#2: AC3, 6 ch, 384 Kbps/Английский

    Общее
    Уникальный идентификатор : 235100460700079244801641732944887980270 (0xB0DEB3A3EE8E8F2EA83B25CF9C1AA0EE)
    Полное имя : C: ВидеоЯ сражаюсь с великанами (2017) WEB-DLRip 1080p.mkv
    Формат : Matroska
    Версия формата : Version 2
    Размер файла : 3, 77 Гбайт
    Продолжительность : 1 ч. 46 м.
    Общий поток : 5072 Кбит/сек
    Дата кодирования : UTC 2018-04-02 04: 12: 56
    Программа кодирования : mkvmerge v7.8.0 (\'River Man\') 32bit built on Apr 3 2015 12: 11: 22
    Библиотека кодирования : libebml v1.3.1 + libmatroska v1.4.2
    Видео
    Идентификатор : 1
    Формат : AVC
    Формат/Информация : Advanced Video Codec
    Профиль формата : High@L4
    Настройки формата : CABAC/5 Ref Frames
    Параметр CABAC формата : Да
    Параметр RefFrames формата : 5 кадров
    Идентификатор кодека : V_MPEG4/ISO/AVC
    Продолжительность : 1 ч. 46 м.
    Битрейт : 4395 Кбит/сек
    Ширина : 1912 пикселей
    Высота : 800 пикселей
    Соотношение сторон : 2, 40: 1
    Режим частоты кадров : Постоянный
    Частота кадров : 23, 976 кадра/сек
    Цветовое пространство : YUV
    Субдискретизация насыщенности : 4: 2: 0
    Битовая глубина : 8 бит
    Тип развёртки : Прогрессивная
    Бит/(Пиксели*Кадры) : 0.120
    Размер потока : 3, 27 Гбайт (87%)
    Язык : English
    Default : Да
    Forced : Нет
    Цветовой диапазон : Limited
    Основные цвета : BT.709
    Характеристики трансфера : BT.709
    Коэффициенты матрицы : BT.709
    Аудио #1
    Идентификатор : 2
    Формат : AC-3
    Формат/Информация : Audio Coding 3
    Идентификатор кодека : A_AC3
    Продолжительность : 1 ч. 46 м.
    Вид битрейта : Постоянный
    Битрейт : 192 Кбит/сек
    Каналы : 2 канала
    Расположение каналов : Front: L R
    Частота : 48, 0 КГц
    Частота кадров : 31, 250 кадров/сек (1536 SPF)
    Битовая глубина : 16 бит
    Метод сжатия : С потерями
    Размер потока : 146 Мбайт (4%)
    Заголовок : HDrezka
    Язык : Russian
    ServiceKind/String : Complete Main
    Default : Да
    Forced : Да
    Аудио #2
    Идентификатор : 3
    Формат : AC-3
    Формат/Информация : Audio Coding 3
    Идентификатор кодека : A_AC3
    Продолжительность : 1 ч. 46 м.
    Вид битрейта : Постоянный
    Битрейт : 384 Кбит/сек
    Каналы : 6 каналов
    Расположение каналов : Front: L C R, Side: L R, LFE
    Частота : 48, 0 КГц
    Частота кадров : 31, 250 кадров/сек (1536 SPF)
    Битовая глубина : 16 бит
    Метод сжатия : С потерями
    Размер потока : 293 Мбайт (8%)
    Язык : English
    ServiceKind/String : Complete Main
    Default : Нет
    Forced : Нет
    Текст #1
    Идентификатор : 4
    Формат : UTF-8
    Идентификатор кодека : S_TEXT/UTF8
    Идентификатор кодека/Информация : UTF-8 Plain Text
    Язык : Russian
    Default : Нет
    Forced : Нет
    Текст #2
    Идентификатор : 5
    Формат : UTF-8
    Идентификатор кодека : S_TEXT/UTF8
    Идентификатор кодека/Информация : UTF-8 Plain Text
    Язык : English
    Default : Нет
    Forced : Нет
    Меню
    00: 00: 00.000 : en: 00: 00: 00
    00: 09: 26.232 : en: 00: 09: 26
    00: 19: 25.623 : en: 00: 19: 25
    00: 30: 54.061 : en: 00: 30: 54
    00: 42: 20.956 : en: 00: 42: 20
    00: 53: 39.717 : en: 00: 53: 39
    01: 04: 09.722 : en: 01: 04: 09
    01: 14: 56.951 : en: 01: 14: 56
    01: 27: 10.809 : en: 01: 27: 10
    01: 38: 03.168 : en: 01: 38: 03

    Скриншоты для ознакомления



    Все одноименные релизы в Клубе
    Время раздачи: 24/7 (до появления первых 3-5 скачавших)


    Онлайн видео Я сражаюсь с великанами



    Я сражаюсь с великанами/I Kill Giants (2017) WEB-DLRip [H.264/1080p-LQ] [MVO]
    Рейтинг →
     (голосов: 1, оценка 4/5, голосовать можно 1 раз )

    Другие торренты по теме:

  • Я сражаюсь с великанами / I Kill Giants (2017) BDRemux [H.264 / 1080p]
  • Я сражаюсь с великанами / I Kill Giants (2017) WEB-DLRip [MVO] [AD]
  • Я сражаюсь с великанами / I Kill Giants (2017) WEB-DLRip [H.264 / 1080p-LQ] [MVO] [AD]
  • Я сражаюсь с великанами / I Kill Giants (2017) WEB-DLRip [H.264 / 720p-LQ] [Line] [AD]
  • Я сражаюсь с великанами / I Kill Giants (2017) WEB-DLRip [H.264]
  • Я сражаюсь с великанами / I Kill Giants (2017) WEB-DL [H.264 / 1080p-LQ]
  • Я сражаюсь с великанами / I Kill Giants (2017) WEB-DL [1080p] ATV
  • Я сражаюсь с великанами / I Kill Giants (2017) WEB-DL [720p] ATV


    • Комментарии (0):

      Информация

      Информация

        Посетители, находящиеся в группе Гости, не могут оставлять комментарии в данной новости.

        ↓ Меню




        ↓ Опрос

        Вы добавили сайт в закладки?
        Да
        Нет


        Top 10 за месяц (Фильмы)