.
Авторизация | Регистрация
Хочешь лучшие торренты? Добавь свой email!
Добавить

Торрент скачать бесплатно

  • support: webmaster@btracker.org
» » Сирена / Siren (2018) WEBRip (сезон 1, серии 1-2 из 10) ColdFilm (обновляемая) [AD] торрент скачать бесплатно


    Сирена / Siren (2018) WEBRip (сезон 1, серии 1-2 из 10) ColdFilm (обновляемая) [AD] торрент скачать бесплатно

    Опубликовал: Админ | Дата: 2-04-2018, 05:00 | .torrent скачали: 0

    Сирена / Siren (2018) WEBRip (сезон 1, серии 1-2 из 10) ColdFilm (обновляемая) [AD]Производство: США
    Жанр: фэнтези, драма
    Режиссер: Ник Копус, Джей Карас, Скотт Чарльз Стюарт

    Актеры
    Элайн Пауэлл, Фола Эванс-Экинбола, Сибонгиле Мламбо, Йен Вердён, Рина Оуэн, Рон Юань, Тэмми Гиллис, Кертис Льюм, Чад Рук, Энтони Харрисон и др.

    Описание

    По легенде возле Бристольской бухты когда-то жили русалки. Однажды здесь появляется таинственная зеленоглазая девушка. Кому-то встреча с ней принесет смерть, а для кого-то она приоткроет старые тайны на первый взгляд безобидного провинциального города.

    Возраст: 18+ (зрителям, достигшим 18 лет)
    Дата мировой премьеры: 29 марта 2018
    Дата премьеры в России: 30 марта 2018

    Релиз от: ColdFilm
    Продолжительность: ~00: 46: 00 серия
    Качество видео: WEBRip
    Перевод: Многоголосый закадровый, любительский - ColdFilm
    Реклама: присутствуют аудио и видео вставки рекламы
    Видео: Xvid, 720х400 (16: 9), ~1266 Kbps
    Аудио: AC3, 2 ch, 192 Kbps

    Общее
    Полное имя : G: Siren.S01Siren.S01E01.avi
    Формат : AVI
    Формат/Информация : Audio Video Interleave
    Размер файла : 486 Мбайт
    Продолжительность : 46 м.
    Общий поток : 1467 Кбит/сек
    Программа кодирования : VirtualDubMod 1.5.10.2 (build 2540/release)
    Библиотека кодирования : VirtualDubMod build 2540/release
    Видео
    Идентификатор : 0
    Формат : xvid
    Идентификатор кодека : xvid
    Продолжительность : 46 м.
    Битрейт : 1266 Кбит/сек
    Ширина : 720 пикселей
    Высота : 400 пикселей
    Соотношение сторон : 16: 9
    Частота кадров : 25, 000 кадров/сек
    Бит/(Пиксели*Кадры) : 0.176
    Размер потока : 419 Мбайт (86%)
    Аудио
    Идентификатор : 1
    Формат : AC-3
    Формат/Информация : Audio Coding 3
    Расширение режима : CM (complete main)
    Параметр Endianness формата : Big
    Идентификатор кодека : 2000
    Продолжительность : 46 м.
    Вид битрейта : Постоянный
    Битрейт : 192 Кбит/сек
    Каналы : 2 канала
    Расположение каналов : Front: L R
    Частота : 48, 0 КГц
    Частота кадров : 31, 250 кадров/сек (1536 spf)
    Метод сжатия : С потерями
    Размер потока : 63, 6 Мбайт (13%)
    Выравнивание : Разделение по промежуткам
    Продолжительность промежутка : 40 мс. (1, 00 видеокадр)
    Время предзагрузки промежутка : 500 мс.


    Онлайн видео Сирена



    Сирена/Siren (2018) WEBRip (сезон 1, серии 1-2 из 10) ColdFilm (обновляемая) [AD]
    Рейтинг →
     (голосов: 1, оценка 3/5, голосовать можно 1 раз )

    Другие торренты по теме:

  • Сирена / SiREN (2016) WEB-DLRip [VO]
  • Сирена / SiREN (2016) WEB-DLRip
  • Сирена / SiREN (2016) WEB-DLRip
  • Сирена / Siren (2018) WEB-DLRip (сезон 1, серии 1-2 из 10) NewStudio (обновляемая)
  • Сирена / Siren (2018) WEB-DLRip (сезон 1, серии 1-3 из 10) Кириллица (обновляемая)
  • Сирена / Siren (2018) WEB-DLRip [H.264 / 720p-LQ] (сезон 1, серии 1-10 из 10) Кириллица
  • K2: Сирена Гималаев / K2: Siren of the Himalayas (2012) HDTVRip [H.264 / 1080i-LQ]


    • Комментарии (0):

      Информация

      Информация

        Посетители, находящиеся в группе Гости, не могут оставлять комментарии в данной новости.

        ↓ Меню




        ↓ Опрос

        Вы добавили сайт в закладки?
        Да
        Нет


        Top 10 за месяц (Фильмы)