.
Авторизация | Регистрация
Хочешь лучшие торренты? Добавь свой email!
Добавить

Торрент скачать бесплатно

  • support: webmaster@btracker.org
» » Террор / The Terror (2018) WEB-DLRip [H.264 / 1080p-LQ] (сезон 1, серии 1-2 из 10) LostFilm (обновляемая) торрент скачать бесплатно


    Террор / The Terror (2018) WEB-DLRip [H.264 / 1080p-LQ] (сезон 1, серии 1-2 из 10) LostFilm (обновляемая) торрент скачать бесплатно

    Опубликовал: Админ | Дата: 2-04-2018, 05:00 | .torrent скачали: 2

    Террор / The Terror (2018) WEB-DLRip [H.264 / 1080p-LQ] (сезон 1, серии 1-2 из 10) LostFilm (обновляемая)Производство: США/EMJAG Productions, Entertainment 360, Scott Free Productions
    Жанр: ужасы, драма
    Режиссер: Тим Милантс, Эдвард Бергер, Серджо Мимика-Геззан

    Актеры
    Джаред Харрис, Киран Хайндс, Тобайас Мензис, Крис Корригэн, Иэн Харт, Кристос Лоутон, Мэттью МакНалти, Адам Нагаитис, Нив Нилсен, Пол Рэди и др.

    Описание

    В 1845 году экспедиция под командованием опытного полярного исследователя сэра Джона Франклина отправляется на судах Террор и Эребус к северному побережью Канады на поиск северо-западного прохода из Атлантического океана в Тихий — и бесследно исчезает. Поиски ее затянулись на несколько десятилетий, сведения о ее судьбе собирались буквально по крупицам, и до сих пор картина происшедшего пестрит белыми пятнами.

    Возраст: 18+ (зрителям, достигшим 18 лет. )
    Дата мировой премьеры: 21 февраля 2018,

    Продолжительность: ~00: 46: 00 серия
    Качество видео: WEB-DLRip
    Перевод: Многоголосый закадровый, профессиональный -LostFilm
    Реклама: присутствуют заставка и логотип LostFilm
    Видео: AVC/H.264, 1920x1080 (16: 9), ~5242 kbps
    Аудио 1: AC-3, 48, 0 kHz, 2 ch, 384 kbps — русский, многоголосый закадровый
    Аудио 2: AC-3, 48, 0 kHz, 2 ch, 384 kbps — английский

    Общее
    Уникальный идентификатор : 207564728790865727654361351996218859684 (0x9C27833D88DF5F38BCA7F099A858E0A4)
    Полное имя : F: TorrentsТеррор.The Terror.LostFilm.1080h.Сезон 1The.Terror.S01E01.1080p.rus.LostFilm.TV.mkv
    Формат : Matroska
    Версия формата : Version 4/Version 2
    Размер файла : 1, 94 Гбайт
    Продолжительность : 46 м. 17 с.
    Общий поток : 6007 Кбит/сек
    Дата кодирования : UTC 2018-03-29 15: 02: 36
    Программа кодирования : mkvmerge v9.5.0 (\'Quiet Fire\') 64bit
    Библиотека кодирования : libebml v1.3.4 + libmatroska v1.4.5
    Видео
    Идентификатор : 1
    Формат : AVC
    Формат/Информация : Advanced Video Codec
    Профиль формата : High@L4.1
    Настройки формата : CABAC/4 Ref Frames
    Параметр CABAC формата : Да
    Параметр RefFrames формата : 4 кадра
    Идентификатор кодека : V_MPEG4/ISO/AVC
    Продолжительность : 46 м. 17 с.
    Битрейт : 5242 Кбит/сек
    Ширина : 1920 пикселей
    Высота : 1080 пикселей
    Соотношение сторон : 16: 9
    Режим частоты кадров : Постоянный
    Частота кадров : 23, 976 (24000/1001) кадра/сек
    Частота кадров в оригинале : 23, 976 (23976/1000) кадра/сек
    Цветовое пространство : YUV
    Субдискретизация насыщенности : 4: 2: 0
    Битовая глубина : 8 бит
    Тип развёртки : Прогрессивная
    Бит/(Пиксели*Кадры) : 0.105
    Размер потока : 1, 69 Гбайт (87%)
    Библиотека кодирования : x264 core 112 r1834 a51816a
    Настройки программы : cabac=1/ref=4/deblock=1: -3: -2/analyse=0x3: 0x113/me=hex/subme=7/psy=1/psy_rd=1.00: 0.00/mixed_ref=1/me_range=16/chroma_me=1/trellis=1/8x8dct=1/cqm=0/deadzone=21, 11/fast_pskip=1/chroma_qp_offset=-2/threads=12/sliced_threads=0/nr=0/decimate=1/interlaced=0/constrained_intra=0/bframes=5/b_pyramid=2/b_adapt=1/b_bias=0/direct=1/weightb=1/open_gop=0/weightp=2/keyint=250/keyint_min=25/scenecut=40/intra_refresh=0/rc_lookahead=40/rc=2pass/mbtree=1/bitrate=5242/ratetol=1.0/qcomp=0.60/qpmin=0/qpmax=51/qpstep=4/cplxblur=20.0/qblur=0.5/vbv_maxrate=10000/vbv_bufsize=256000/ip_ratio=1.40/aq=1: 1.00/nal_hrd=none
    Default : Да
    Forced : Нет
    Аудио #1
    Идентификатор : 2
    Формат : AC-3
    Формат/Информация : Audio Coding 3
    Идентификатор кодека : A_AC3
    Продолжительность : 46 м. 17 с.
    Вид битрейта : Постоянный
    Битрейт : 384 Кбит/сек
    Каналы : 2 канала
    Расположение каналов : Front: L R
    Частота : 48, 0 КГц
    Частота кадров : 31, 250 кадров/сек (1536 SPF)
    Битовая глубина : 16 бит
    Метод сжатия : С потерями
    Размер потока : 127 Мбайт (6%)
    ServiceKind/String : Complete Main
    Default : Да
    Forced : Нет
    Аудио #2
    Идентификатор : 3
    Формат : AC-3
    Формат/Информация : Audio Coding 3
    Идентификатор кодека : A_AC3
    Продолжительность : 46 м. 17 с.
    Вид битрейта : Постоянный
    Битрейт : 384 Кбит/сек
    Каналы : 2 канала
    Расположение каналов : Front: L R
    Частота : 48, 0 КГц
    Частота кадров : 31, 250 кадров/сек (1536 SPF)
    Битовая глубина : 16 бит
    Метод сжатия : С потерями
    Размер потока : 127 Мбайт (6%)
    ServiceKind/String : Complete Main
    Default : Нет
    Forced : Нет


    Онлайн видео Террор



    Террор/The Terror (2018) WEB-DLRip [H.264/1080p-LQ] (сезон 1, серии 1-2 из 10) LostFilm (обновляемая)
    Рейтинг →
     (голосов: 1, оценка 3/5, голосовать можно 1 раз )

    Другие торренты по теме:

  • Шерлок Холмс: Ночной террор / Terror by Night (1946) DVDRip
  • Амитивилль: Террор / Amityville Terror (2016) WEB-DLRip
  • Террор 5 / Terror 5 (2016) BDRip [H.264 / 1080p] [VO]
  • Террор / The Terror (2018) WEB-DLRip (сезон 1, серии 1-2 из 10) LostFilm (обновляемая)
  • Террор / The Terror (2018) WEB-DL [H.264 / 1080p-LQ] (сезон 1, серии 1-2 из 10) OmskBird (обновляемая) [AD]
  • Террор / The Terror (2018) WEBRip [H.264 / 720p-LQ] (сезон 1, серии 1-2 из 10) LostFilm (обновляемая)


    • Комментарии (0):

      Информация

      Информация

        Посетители, находящиеся в группе Гости, не могут оставлять комментарии в данной новости.

        ↓ Меню




        ↓ Опрос

        Вы добавили сайт в закладки?
        Да
        Нет


        Top 10 за месяц (Фильмы)