.
Авторизация | Регистрация
Хочешь лучшие торренты? Добавь свой email!
Добавить

Торрент скачать бесплатно

» » Последний человек на Земле / The Last Man on Earth (2017) WEBRip [H.264 / 720p-LQ] (сезон 4, серии 1-12 из 18) (обновляемая) BaibaKo [AD] торрент скачать бесплатно


    Последний человек на Земле / The Last Man on Earth (2017) WEBRip [H.264 / 720p-LQ] (сезон 4, серии 1-12 из 18) (обновляемая) BaibaKo [AD] торрент скачать бесплатно

    Опубликовал: Админ | Дата: 2-04-2018, 05:00 | .torrent скачали: 0

    Последний человек на Земле / The Last Man on Earth (2017) WEBRip [H.264 / 720p-LQ] (сезон 4, серии 1-12 из 18) (обновляемая) BaibaKo [AD]Производство: США
    Жанр: комедия
    Режиссер: Фил Лорд, Кристофер Миллер, Питер Атенсио

    Актеры
    Уилл Форте, Кристен Шаал, Дженьюэри Джонс, Мэл Родригез, Клеопатра Коулмэн, Мэри и др.

    Описание

    Главный герой этого сериала - Фил Миллер. Не сказать, что он славный парень. Простой дядька, который ничем особенным не отличается. Он работает на не самой любимой работе, старается поддерживать дружелюбную атмосферу в семье и делает все возможное, чтобы не сорваться с катушек из-за бешеной жизни. Он даже подумать не мог, что на его плечи ляжет надежда на спасение человечества.

    Возраст: 16+ (зрителям, достигшим 16 лет)
    Релиз от: BaibaKo
    Продолжительность: ~00: 22: 00 серия
    Качество видео: WEBRip
    Перевод: Многоголосый закадровый, профессиональный -BaibaKo
    Реклама: присутствуют аудио и видео вставки рекламы
    Видео: AVC/H.264, 1280x720 (16: 9), ~3996 Kbps
    Аудио 1: AC3, 2 ch, 384 kbps - русский, многоголосый закадровый
    Аудио 2: AC3, 2 ch, 384 kbps - английский

    Общее
    Уникальный идентификатор : 185911880427086054141775833456515791164 (0x8BDD53648F924752ABFD16E84250B93C)
    Полное имя : E: ФильмыThe.Last.Man.On.Earth.s04.HD720p.WEBRip.Rus.Eng.BaibaKo.tvThe.Last.Man.On.Earth.s04e12.HD720p.WEBRip.Rus.Eng.BaibaKo.tv.mkv
    Формат : Matroska
    Версия формата : Version 4/Version 2
    Размер файла : 753 Мбайт
    Продолжительность : 22 м. 4 с.
    Общий поток : 4765 Кбит/сек
    Дата кодирования : UTC 2018-03-26 23: 17: 30
    Программа кодирования : mkvmerge v9.3.1 (\'Mask Machine\') 64bit
    Библиотека кодирования : libebml v1.3.4 + libmatroska v1.4.5
    Видео
    Идентификатор : 1
    Формат : AVC
    Формат/Информация : Advanced Video Codec
    Профиль формата : High@L4.1
    Параметр CABAC формата : Да
    Параметр ReFrames формата : 4 кадра
    Идентификатор кодека : V_MPEG4/ISO/AVC
    Продолжительность : 22 м. 4 с.
    Битрейт : 3996 Кбит/сек
    Ширина : 1280 пикселей
    Высота : 720 пикселей
    Соотношение сторон : 16: 9
    Режим частоты кадров : Постоянный
    Частота кадров : 23, 976 (24000/1001) кадра/сек
    Цветовое пространство : YUV
    Субдискретизация насыщенности : 4: 2: 0
    Битовая глубина : 8 бит
    Тип развёртки : Прогрессивная
    Бит/(Пиксели*Кадры) : 0.181
    Размер потока : 631 Мбайт (84%)
    Default : Да
    Forced : Нет
    Аудио #1
    Идентификатор : 2
    Формат : AC-3
    Формат/Информация : Audio Coding 3
    Расширение режима : CM (complete main)
    Параметр Endianness формата : Big
    Идентификатор кодека : A_AC3
    Продолжительность : 22 м. 4 с.
    Вид битрейта : Постоянный
    Битрейт : 384 Кбит/сек
    Каналы : 2 канала
    Расположение каналов : Front: L R
    Частота : 48, 0 КГц
    Частота кадров : 31, 250 кадров/сек (1536 spf)
    Метод сжатия : С потерями
    Размер потока : 60, 6 Мбайт (8%)
    Язык : Russian
    Default : Да
    Forced : Нет
    Аудио #2
    Идентификатор : 3
    Формат : AC-3
    Формат/Информация : Audio Coding 3
    Расширение режима : CM (complete main)
    Параметр Endianness формата : Big
    Идентификатор кодека : A_AC3
    Продолжительность : 22 м. 4 с.
    Вид битрейта : Постоянный
    Битрейт : 384 Кбит/сек
    Каналы : 2 канала
    Расположение каналов : Front: L R
    Частота : 48, 0 КГц
    Частота кадров : 31, 250 кадров/сек (1536 spf)
    Метод сжатия : С потерями
    Размер потока : 60, 6 Мбайт (8%)
    Язык : English
    Default : Нет
    Forced : Нет


    Онлайн видео Последний человек на Земле



    Последний человек на Земле/The Last Man on Earth (2017) WEBRip [H.264/720p-LQ] (сезон 4, серии 1-12 из 18) (обновляемая) BaibaKo [AD]
    Рейтинг →
     (голосов: 1, оценка 5/5, голосовать можно 1 раз )

    Другие торренты по теме:

  • Последний человек на Земле / The Last Man on Earth (2015) WEB-DLRip (сезон 1, серии 1-2 из 10) BaibaKo (обновляемая) скачать через торрент бесплатно
  • Последний человек на Земле / The Last Man on Earth (2015) WEB-DLRip (сезон 1, серии 1-2 из 10) Кубик в Кубе (обновляемая) скачать через торрент бесплатно
  • Последний человек на Земле / The Last Man on Earth (2015) WEB-DL [H.264 / 720p-LQ] (сезон 1, серии 1-3 из 13) (OMSKBIRD) (обновляемая) скачать через торрент бесплатно
  • Последний человек на Земле / The Last Man on Earth (2015) WEB-DLRip (Сезон 1, серии 1-3 из 10) (Кубик в Кубе) (обновляемая) скачать через торрент бесплатно
  • Последний человек на Земле / The Last Man on Earth (2015) WEB-DL [H.264 / 720p-LQ] (Сезон 1, серии 1-4 из 12) (BaibaKo) (обновляемая) скачать через торрент бесплатно
  • Последний человек на Земле / The Last Man on Earth (2015) WEB-DLRip (сезон 1, серии 1-10 из 13) (OMSKBIRD records) (обновляемая) скачать через торрент бесплатно
  • Последний человек на Земле / The Last Man on Earth (2015) WEB-DLRip (сезон 2, серии 1 из 13) Кубик в Кубе (обновляемая) скачать через торрент бесплатно
  • Последний человек на Земле / The Last Man on Earth (2015) WEB-DL [H.264 / 1080p-LQ] (сезон 2, серии 1 из 13) BaibaKo (обновляемая) скачать через торрент бесплатно


    • Комментарии (0):

      Информация

      Информация

        Посетители, находящиеся в группе Гости, не могут оставлять комментарии в данной новости.

        ↓ Меню




        ↓ Опрос

        Вы добавили сайт в закладки?
        Да
        Нет


        Top 10 за месяц (Фильмы)