.
Авторизация | Регистрация
Хочешь лучшие торренты? Добавь свой email!
Добавить

Торрент скачать бесплатно

» » Верю, люблю, надеюсь (2018) WEB-DLRip [H.264] (серии 1-4 из 4) торрент скачать бесплатно


    Верю, люблю, надеюсь (2018) WEB-DLRip [H.264] (серии 1-4 из 4) торрент скачать бесплатно

    Опубликовал: Админ | Дата: 2-04-2018, 05:00 | .torrent скачали: 0

    Верю, люблю, надеюсь (2018) WEB-DLRip [H.264] (серии 1-4 из 4)Производство: Беларусь/ООО Александр-Фильм
    Жанр: Мелодрама
    Режиссер: Кирилл Капица

    Актеры
    Оксана Дорохина, Елена Великанова, Дарья Сазонова, Иван Николаев, Светлана Суховей, Василий Козлов (II) ...

    Описание

    Вера мать двоих уже достаточно взрослых дочерей. Неожиданно в их жизни наступает чёрная полоса. В семью одновременно пришли две беды. Вера лишилась супруга и жилья. В своём, уже не молодом возрасте, Вера начинает жизнь с нуля. Вера в людей и справедливость полностью утрачены. Но как известно, после чёрной полосы обязательно наступает белая. Не стоит унывать, в мире ещё остались добрые люди, счастье обязательно придёт.
    Дата мировой премьеры: 1 апреля 2018
    Продолжительность: ~00: 45: 00 серия
    Качество видео: WEB-DLRip (AVC)
    Язык озвучки: Русский
    Субтитры: Отсутствуют
    Видео: H.264/AVC, 1024x576, ~1600 Kbps
    Аудио: AC-3, 2 ch, 192 Kbps

    Общее
    Уникальный идентификатор : 252597319998082125992451260170140491542 (0xBE0879682952B869A4A0EF07F8219F16)
    Полное имя : E: NNMВерю, люблю, надеюсьVeru Lublu Nadeusj 2018 WEB-DLRip 720p-LQ1.Верю.mkv
    Формат : Matroska
    Версия формата : Version 2
    Размер файла : 562 Мбайт
    Продолжительность : 43 м. 50 с.
    Общий поток : 1792 Кбит/сек
    Дата кодирования : UTC 2018-04-01 13: 58: 21
    Программа кодирования : mkvmerge v7.8.0 (\'River Man\') 32bit built on Apr 3 2015 12: 11: 22
    Библиотека кодирования : libebml v1.3.1 + libmatroska v1.4.2
    Видео
    Идентификатор : 1
    Формат : AVC
    Формат/Информация : Advanced Video Codec
    Профиль формата : High@L4.1
    Настройки формата : CABAC/9 Ref Frames
    Параметр CABAC формата : Да
    Параметр RefFrames формата : 9 кадров
    Идентификатор кодека : V_MPEG4/ISO/AVC
    Продолжительность : 43 м. 50 с.
    Битрейт : 1600 Кбит/сек
    Ширина : 1024 пикселя
    Высота : 576 пикселей
    Соотношение сторон : 16: 9
    Режим частоты кадров : Постоянный
    Частота кадров : 25, 000 кадров/сек
    Цветовое пространство : YUV
    Субдискретизация насыщенности : 4: 2: 0
    Битовая глубина : 8 бит
    Тип развёртки : Прогрессивная
    Бит/(Пиксели*Кадры) : 0.109
    Размер потока : 491 Мбайт (87%)
    Библиотека кодирования : x264 core 146 r2538 121396c
    Настройки программы : cabac=1/ref=9/deblock=1: -2: -1/analyse=0x3: 0x133/me=umh/subme=9/psy=1/psy_rd=1.00: 0.15/mixed_ref=1/me_range=32/chroma_me=1/trellis=2/8x8dct=1/cqm=0/deadzone=21, 11/fast_pskip=0/chroma_qp_offset=-3/threads=18/lookahead_threads=3/sliced_threads=0/nr=0/decimate=1/interlaced=0/bluray_compat=0/constrained_intra=0/bframes=9/b_pyramid=2/b_adapt=2/b_bias=0/direct=1/weightb=1/open_gop=0/weightp=2/keyint=250/keyint_min=25/scenecut=40/intra_refresh=0/rc=2pass/mbtree=0/bitrate=1600/ratetol=1.0/qcomp=0.60/qpmin=0/qpmax=69/qpstep=4/cplxblur=20.0/qblur=0.5/ip_ratio=1.40/pb_ratio=1.30/aq=2: 1.00
    Default : Да
    Forced : Нет
    Цветовой диапазон : Limited
    Основные цвета : BT.709
    Характеристики трансфера : BT.709
    Коэффициенты матрицы : BT.709
    Аудио
    Идентификатор : 2
    Формат : AC-3
    Формат/Информация : Audio Coding 3
    Идентификатор кодека : A_AC3
    Продолжительность : 43 м. 50 с.
    Вид битрейта : Постоянный
    Битрейт : 192 Кбит/сек
    Каналы : 2 канала
    Расположение каналов : Front: L R
    Частота : 44, 1 КГц
    Частота кадров : 28, 711 кадров/сек (1536 SPF)
    Битовая глубина : 16 бит
    Метод сжатия : С потерями
    Размер потока : 60, 2 Мбайт (11%)
    ServiceKind/String : Complete Main
    Default : Да
    Forced : Нет

    Скриншоты для ознакомления



    Все одноименные релизы в Клубе Время раздачи: 24/7 (до появления первых 3-5 скачавших)


    Онлайн видео Верю, люблю, надеюсь (2018) WEB



    Верю, люблю, надеюсь (2018) WEB-DLRip [H.264] (серии 1-4 из 4)
    Рейтинг →
     (голосов: 1, оценка 5/5, голосовать можно 1 раз )

    Другие торренты по теме:

  • Грейс - Верю и люблю (2014) [MP3|320 кб / с]<Шансон> скачать через торрент бесплатно


    • Комментарии (0):

      Информация

      Информация

        Посетители, находящиеся в группе Гости, не могут оставлять комментарии в данной новости.

        ↓ Меню




        ↓ Опрос

        Вы добавили сайт в закладки?
        Да
        Нет


        Top 10 за месяц (Фильмы)