.
Авторизация | Регистрация
Хочешь лучшие торренты? Добавь свой email!
Добавить

Торрент скачать бесплатно

» » Секрет Майя (2018) WEB-DL [H.264 / 1080p-LQ] (серии 1-4 из 4) торрент скачать бесплатно


    Секрет Майя (2018) WEB-DL [H.264 / 1080p-LQ] (серии 1-4 из 4) торрент скачать бесплатно

    Опубликовал: Админ | Дата: 2-04-2018, 05:00 | .torrent скачали: 1

    Секрет Майя (2018) WEB-DL [H.264 / 1080p-LQ] (серии 1-4 из 4)Производство: Украина/Стар Медиа
    Жанр: драма, криминал
    Режиссер: Олег Ларин

    Актеры
    Ирина Таранник, Дмитрий Сова, Полина Ларина, Игорь Рубашкин, Николай Боклан, Владислав Мамчур, Владимир Осадчий, Игорь Петрусенко, Дмитрий Сарансков, Дмитрий Паламарчук

    Описание

    Молодая женщина Наташа попадает в сложную жизненную ситуацию, из которой ей придется выбираться самостоятельно. Потеря мужа, занимавшегося строительным бизнесом, криминальные наезды братков, предательство друзей... Все эти испытания, которые ей придется преодолеть в самое ближайшее время.

    Премьера: 1 апреля 2018 (ТРК Україна)
    Релиз от: Алехаndr
    Продолжительность: ~00: 45: 00 серия
    Качество видео: WEB-DL
    Язык озвучки: русский
    Видео: AVC/H.264, 1920x1080 (16: 9), ~2720 Kbps
    Аудио: AC3, 2 ch, 192 Kbps

    Общее
    Уникальный идентификатор : 93583485056255247559893568865988664121 (0x4667860BC37053C6C69C3BC1E6565B39)
    Полное имя : G: Секрет Майя (2018).by.АлехаndrСерия 1.by.Алехаndr.mkv
    Формат : Matroska
    Версия формата : Version 4/Version 2
    Размер файла : 933 Мбайт
    Продолжительность : 44 м. 45 с.
    Общий поток : 2914 Кбит/сек
    Дата кодирования : UTC 2018-04-01 16: 05: 26
    Программа кодирования : mkvmerge v21.0.0 (\'Tardigrades Will Inherit The Earth\') 64-bit
    Библиотека кодирования : libebml v1.3.5 + libmatroska v1.4.8/Lavf57.71.100
    Видео
    Идентификатор : 1
    Формат : AVC
    Формат/Информация : Advanced Video Codec
    Профиль формата : High@L4
    Настройки формата : CABAC/2 Ref Frames
    Параметр CABAC формата : Да
    Параметр RefFrames формата : 2 кадра
    Идентификатор кодека : V_MPEG4/ISO/AVC
    Продолжительность : 44 м. 45 с.
    Битрейт : 2720 Кбит/сек
    Ширина : 1920 пикселей
    Высота : 1080 пикселей
    Соотношение сторон : 16: 9
    Режим частоты кадров : Постоянный
    Частота кадров : 25, 000 кадров/сек
    Цветовое пространство : YUV
    Субдискретизация насыщенности : 4: 2: 0
    Битовая глубина : 8 бит
    Тип развёртки : Прогрессивная
    Бит/(Пиксели*Кадры) : 0.052
    Размер потока : 871 Мбайт (93%)
    Default : Да
    Forced : Нет
    Цветовой диапазон : Limited
    Основные цвета : BT.709
    Характеристики трансфера : BT.709
    Коэффициенты матрицы : BT.709
    Аудио
    Идентификатор : 2
    Формат : AC-3
    Формат/Информация : Audio Coding 3
    Идентификатор кодека : A_AC3
    Продолжительность : 44 м. 45 с.
    Вид битрейта : Постоянный
    Битрейт : 192 Кбит/сек
    Каналы : 2 канала
    Расположение каналов : Front: L R
    Частота : 44, 1 КГц
    Частота кадров : 28, 711 кадров/сек (1536 SPF)
    Битовая глубина : 16 бит
    Метод сжатия : С потерями
    Размер потока : 61, 5 Мбайт (7%)
    Язык : Russian
    ServiceKind/String : Complete Main
    Default : Да
    Forced : Нет

    Скриншоты для ознакомления



    Все одноименные релизы в Клубе
    Время раздачи: 24/7 (круглосуточно) (до появления первых 3-5 скачавших)


    Онлайн видео Секрет Майя (2018) WEB-DL [H.264



    Секрет Майя (2018) WEB-DL [H.264/1080p-LQ] (серии 1-4 из 4)
    Рейтинг →
     (голосов: 1, оценка 5/5, голосовать можно 1 раз )

    Другие торренты по теме:

  • Himegoto / Секрет Химе [2014, TV, 11 из 12] HDTV 720p raw
  • Евгений Карташов | MASK PANEL Секрет укрощения масок + 3D Luts (2014) PCRec скачать через торрент бесплатно
  • Газета | 1001 совет и секрет. Спецвыпуск №11 Имеете право (Ноябрь 2014) [PDF] скачать через торрент бесплатно
  • Рассекреченная история. Лина Штерн. Секрет спасения (2014.12.16) SATRip скачать через торрент бесплатно
  • Alan Silvestri - Ночь в музее: Секрет гробницы / Night At The Museum: Secret Of The Tomb (Original Motion Picture Soundtrack) (2014) [MP3|320 кб / с]<Soundtrack>
  • Секрет мистера Хоппи / Roald Dahls Esio Trot / Mr. Hoppys Geheimnis (2015) BDRip [1080p] [EN] скачать через торрент бесплатно
  • Секрет мистера Хоппи / Roald Dahls Esio Trot / Mr. Hoppys Geheimnis (2015) BDRip [720p] [EN] скачать через торрент бесплатно
  • Ночь в музее: Секрет гробницы / Night at the Museum: Secret of the Tomb (2014) CAMRip


    • Комментарии (0):

      Информация

      Информация

        Посетители, находящиеся в группе Гости, не могут оставлять комментарии в данной новости.

        ↓ Меню




        ↓ Опрос

        Вы добавили сайт в закладки?
        Да
        Нет


        Top 10 за месяц (Фильмы)