.
Авторизация | Регистрация
Хочешь лучшие торренты? Добавь свой email!
Добавить

Торрент скачать бесплатно

» » Поезд судьбы (2018) WEB-DLRip (серии 1-4 из 4) торрент скачать бесплатно


    Поезд судьбы (2018) WEB-DLRip (серии 1-4 из 4) торрент скачать бесплатно

    Опубликовал: Админ | Дата: 2-04-2018, 05:00 | .torrent скачали: 0

    Поезд судьбы (2018) WEB-DLRip (серии 1-4 из 4)Производство: Россия/ООО Тесей Продакшн, Медиа-Арена
    Жанр: мелодрама
    Режиссер: Андрей Хрулёв

    Актеры
    Марина Иванова, Александр Головин, Дмитрий Мухин, Александр Цуркан, Сергей Пукита, Виктория Бурчиц, Людмила Малеева, Юлианна Михневич, Дарья Баранова и др.

    Описание

    Люся мечтает быть художницей, но пока вынуждена работать уборщицей на железнодорожном вокзале провинциального городка.
    В нее безнадежно влюблен охранник Федя — молодой одинокий отец с маленьким сыном. Но Люся не отвечает на его чувства, она ищет более утонченного и интересного мужчину.
    И вот однажды судьба сводит Люсю с мужчиной ее мечты. В поезде она знакомится с Максимом — красавцем-искусствоведом из столицы. Люся спасает его от бандитов и поселяет у себя в квартире, не подозревая о криминальном прошлом своего прекрасного принца …

    Возраст: 12+ (зрителям, достигшим 12 лет)
    Дата премьеры в России: 31 марта 2018
    Продолжительность: ~00: 45: 00 серия
    Качество видео: WEB-DLRip
    Видео: XviD, 720x400 (16: 9), ~1925 Kbps
    Аудио: AC-3, 2 ch, 192 Kbps

    Общее
    Полное имя : E: NNMПоезд судьбыPoezd sudjby 2018 WEB-DLRipPoezd 01-02.avi
    Формат : AVI
    Формат/Информация : Audio Video Interleave
    Размер файла : 1, 37 Гбайт
    Продолжительность : 1 ч. 31 м.
    Общий поток : 2126 Кбит/сек
    Программа кодирования : VirtualDubMod 1.5.10.3 |www.virtualdub-fr.org|| (build 2550/release)
    Библиотека кодирования : VirtualDubMod build 2550/release
    Видео
    Идентификатор : 0
    Формат : MPEG-4 Visual
    Профиль формата : Advanced Simple@L5
    Настройки формата : BVOP1/Custom Matrix
    Параметр BVOP формата : 1
    Параметр QPel формата : Нет
    Параметр GMC формата : Без точки перехода
    Параметр матрицы формата : Выборочная
    Идентификатор кодека : XVID
    Идентификатор кодека/Подсказка : XviD
    Продолжительность : 1 ч. 31 м.
    Битрейт : 1925 Кбит/сек
    Ширина : 720 пикселей
    Высота : 400 пикселей
    Соотношение сторон : 16: 9
    Частота кадров : 25, 000 кадров/сек
    Цветовое пространство : YUV
    Субдискретизация насыщенности : 4: 2: 0
    Битовая глубина : 8 бит
    Тип развёртки : Прогрессивная
    Метод сжатия : С потерями
    Бит/(Пиксели*Кадры) : 0.267
    Размер потока : 1, 24 Гбайт (91%)
    Библиотека кодирования : XviD 73
    Аудио
    Идентификатор : 1
    Формат : AC-3
    Формат/Информация : Audio Coding 3
    Идентификатор кодека : 2000
    Продолжительность : 1 ч. 31 м.
    Вид битрейта : Постоянный
    Битрейт : 192 Кбит/сек
    Каналы : 2 канала
    Расположение каналов : Front: L R
    Частота : 48, 0 КГц
    Частота кадров : 31, 250 кадров/сек (1536 SPF)
    Битовая глубина : 16 бит
    Метод сжатия : С потерями
    Размер потока : 126 Мбайт (9%)
    Выравнивание : Разделение по промежуткам
    Продолжительность промежутка : 40 мс. (1, 00 видеокадр)
    Время предзагрузки промежутка : 500 мс.
    ServiceKind/String : Complete Main

    Скриншоты для ознакомления


    Все одноименные релизы в Клубе
    Время раздачи: 24/7 (до появления первых 3-5 скачавших)


    Онлайн видео Поезд судьбы (2018) WEB



    Поезд судьбы (2018) WEB-DLRip (серии 1-4 из 4)
    Рейтинг →
     (голосов: 1, оценка 4/5, голосовать можно 1 раз )

    Другие торренты по теме:

  • Поезд сирот / Поезд с сиротами / Orphan Train (1979) TVRip скачать через торрент бесплатно
  • Поезд на Париж / The 15:17 to Paris (2018) BDRip [1080p] ATV
  • Поезд на Париж / The 15:17 to Paris (2018) BDRip [720p] ATV
  • Денежный поезд / Money Train (1995) BDRemux [1080p] скачать через торрент бесплатно
  • Поезд на Юму / 3:10 to Yuma (2007) BDRemux [1080p]
  • Поезд на Юму / 3:10 to Yuma (2007) HDRip [AVO] скачать через торрент бесплатно
  • Денежный поезд / Money Train (1995) BDRip [720p]
  • Денежный поезд / Money Train (1995) HDRip [AVO] скачать через торрент бесплатно


    • Комментарии (0):

      Информация

      Информация

        Посетители, находящиеся в группе Гости, не могут оставлять комментарии в данной новости.

        ↓ Меню




        ↓ Опрос

        Вы добавили сайт в закладки?
        Да
        Нет


        Top 10 за месяц (Фильмы)