.
Авторизация | Регистрация
Хочешь лучшие торренты? Добавь свой email!
Добавить

Торрент скачать бесплатно

  • support: webmaster@btracker.org
» » Золотая орда (2018) WEBRip [H.264 / 1080p-LQ] (серии 1-16 из 16) торрент скачать бесплатно


    Золотая орда (2018) WEBRip [H.264 / 1080p-LQ] (серии 1-16 из 16) торрент скачать бесплатно

    Опубликовал: Админ | Дата: 2-04-2018, 05:00 | .torrent скачали: 1

    Золотая орда (2018) WEBRip [H.264 / 1080p-LQ] (серии 1-16 из 16)Производство: Россия/Марс Медиа Энтертейнмент, Амедиа Продакшн
    Жанр: мелодрама, драма, приключения
    Режиссер: Тимур Алпатов

    Актеры
    Александр Устюгов, Рамиль Сабитов, Юлия Пересильд, Светлана Колпакова, Сабина Ахмедова, Санжар Мади, Сергей Пускепалис, Артур Иванов, Дина Тасбулатова, Аружан Джазильбекова и др.

    Описание

    Конец XIII-го века. В столицу Руси прибывает посланник Золотой Орды — Менгу-Темир, красавец и ценитель женской красоты. Он приехал, чтобы угнать в Орду тысячи русских воинов, но готов довольствоваться лишь частью, если Великий князь Ярослав отдаст княгиню Устинью, жену его брата Бориса. Ярослав не готов нарушить законы Веры и Чести, но Борис сам идет на этот шаг, надеясь, что эта жертва обеспечит ему княжеский престол. Устинья с караваном отправляется на чужбину...

    Возраст: 16+ (зрителям, достигшим 16 лет)
    Дата российской премьеры: 12 марта 2018
    Продолжительность: ~00: 52: 00 серия
    Качество видео: WEBRip
    Видео: AVC/H.264, 1920x1080 (16: 9), ~4562 kbps
    Аудио: AC3, 2 ch, 192 kbps

    Общее
    Уникальный идентификатор : 226050313096943018168527675299676593506 (0xAA0FB4E9D7A50528CB6AD95A79D89D62)
    Полное имя : E: TorrentZolotaja_orda_2018_WEB-DL_H.264_1080p-LQ_Files-x1.Zolotaja.orda.2017.WEB-DL.1080.Files-x.mkv
    Формат : Matroska
    Версия формата : Version 4/Version 2
    Размер файла : 1, 77 Гбайт
    Продолжительность : 52 м. 23 с.
    Режим общего битрейта : Постоянный
    Общий поток : 4851 Кбит/сек
    Программа кодирования : Lavf56.25.101
    Библиотека кодирования : Lavf56.25.101
    Видео
    Идентификатор : 1
    Формат : AVC
    Формат/Информация : Advanced Video Codec
    Профиль формата : High@L4.1
    Настройки формата : CABAC/4 Ref Frames
    Параметр CABAC формата : Да
    Параметр RefFrames формата : 4 кадра
    Идентификатор кодека : V_MPEG4/ISO/AVC
    Продолжительность : 52 м. 23 с.
    Вид битрейта : Постоянный
    Битрейт : 4562 Кбит/сек
    Номинальный битрейт : 4800 Кбит/сек/4800 Кбит/сек
    Ширина : 1920 пикселей
    Высота : 1080 пикселей
    Соотношение сторон : 16: 9
    Режим частоты кадров : Постоянный
    Частота кадров : 25, 000 кадров/сек
    Цветовое пространство : YUV
    Субдискретизация насыщенности : 4: 2: 0
    Битовая глубина : 8 бит
    Тип развёртки : Прогрессивная
    Бит/(Пиксели*Кадры) : 0.088
    Размер потока : 1, 67 Гбайт (94%)
    Библиотека кодирования : x264 core 148
    Настройки программы : cabac=1/ref=2/deblock=1: 0: 0/analyse=0x3: 0x113/me=hex/subme=6/psy=1/psy_rd=1.00: 0.00/mixed_ref=1/me_range=16/chroma_me=1/trellis=1/8x8dct=1/cqm=0/deadzone=21, 11/fast_pskip=1/chroma_qp_offset=-2/threads=1/lookahead_threads=1/sliced_threads=0/nr=0/decimate=1/interlaced=0/bluray_compat=0/constrained_intra=0/bframes=3/b_pyramid=2/b_adapt=1/b_bias=0/direct=1/weightb=1/open_gop=0/weightp=1/keyint=250/keyint_min=25/scenecut=0/intra_refresh=0/rc_lookahead=30/rc=cbr/mbtree=1/bitrate=4800/ratetol=1.0/qcomp=0.60/qpmin=0/qpmax=69/qpstep=4/vbv_maxrate=4800/vbv_bufsize=2400/nal_hrd=cbr/filler=1/ip_ratio=1.40/aq=1: 1.00
    Default : Да
    Forced : Нет
    Аудио
    Идентификатор : 2
    Формат : AC-3
    Формат/Информация : Audio Coding 3
    Идентификатор кодека : A_AC3
    Продолжительность : 52 м. 23 с.
    Вид битрейта : Постоянный
    Битрейт : 192 Кбит/сек
    Каналы : 2 канала
    Расположение каналов : Front: L R
    Частота : 48, 0 КГц
    Частота кадров : 31, 250 кадров/сек (1536 SPF)
    Битовая глубина : 16 бит
    Метод сжатия : С потерями
    Задержка видео : -80 мс.
    Размер потока : 71, 9 Мбайт (4%)
    Язык : English
    ServiceKind/String : Complete Main
    Default : Да
    Forced : Нет

    Скриншоты для ознакомления



    Все одноименные релизы в Клубе
    Время раздачи: 24/7 (до появления первых 3-5 скачавших)


    Онлайн видео Золотая орда (2018) WEBRip [H.264



    Золотая орда (2018) WEBRip [H.264/1080p-LQ] (серии 1-16 из 16)
    Рейтинг →
     (голосов: 1, оценка 5/5, голосовать можно 1 раз )

    Другие торренты по теме:

  • Золотая орда (2018) SATRip (серии 1-2 из 16) (обновляемая)
  • Золотая Орда (2018) WEBRip (серии 1-16 из 16)
  • Борис Глебов | Золотая Орда (2018) [FB2]


    • Комментарии (0):

      Информация

      Информация

        Посетители, находящиеся в группе Гости, не могут оставлять комментарии в данной новости.

        ↓ Меню




        ↓ Опрос

        Вы добавили сайт в закладки?
        Да
        Нет


        Top 10 за месяц (Фильмы)