.
Авторизация | Регистрация
Хочешь лучшие торренты? Добавь свой email!
Добавить

Торрент скачать бесплатно

» » Квартирник на НТВ у Маргулиса. Александр Розенбаум (03.31.2018) WEBRip [H.264 / 1080p-LQ] торрент скачать бесплатно


    Квартирник на НТВ у Маргулиса. Александр Розенбаум (03.31.2018) WEBRip [H.264 / 1080p-LQ] торрент скачать бесплатно

    Опубликовал: Админ | Дата: 2-04-2018, 05:00 | .torrent скачали: 0

    Квартирник на НТВ у Маргулиса. Александр Розенбаум (03.31.2018) WEBRip [H.264 / 1080p-LQ]Производство: НТВ
    Жанр: Концерт

    Описание

    В гости к ведущему Евгению Маргулису пришел певец и композитор Александр Розенбаум. Заслуженный артист России исполнил полюбившиеся миллионам поклонников композиции и вспомнил начало успешной карьеры.
    Релиз от: Алехаndr
    Продолжительность: 01: 09: 46
    Качество видео: WEBRip
    Субтитры: Отсутствуют
    Видео: AVC/H.264, 1920x1080 (16: 9), ~2115 Kbps
    Аудио: AC3, 2 ch, 192 Kbps

    Общее
    Уникальный идентификатор : 263367153404099974292775675461103876865 (0xC622AB30A32E9FE1262F0A4275E57B01)
    Полное имя : G: Квартирник НТВ у Маргулиса (Александр Розенбаум).by.Алехаndr.mkv
    Формат : Matroska
    Версия формата : Version 4/Version 2
    Размер файла : 1, 13 Гбайт
    Продолжительность : 1 ч. 9 м.
    Общий поток : 2308 Кбит/сек
    Дата кодирования : UTC 2018-04-01 05: 46: 08
    Программа кодирования : mkvmerge v21.0.0 (\'Tardigrades Will Inherit The Earth\') 64-bit
    Библиотека кодирования : libebml v1.3.5 + libmatroska v1.4.8/Lavf57.71.100
    Видео
    Идентификатор : 1
    Формат : AVC
    Формат/Информация : Advanced Video Codec
    Профиль формата : High@L4
    Настройки формата : CABAC/3 Ref Frames
    Параметр CABAC формата : Да
    Параметр RefFrames формата : 3 кадра
    Идентификатор кодека : V_MPEG4/ISO/AVC
    Продолжительность : 1 ч. 9 м.
    Битрейт : 2115 Кбит/сек
    Ширина : 1920 пикселей
    Высота : 1080 пикселей
    Соотношение сторон : 16: 9
    Режим частоты кадров : Постоянный
    Частота кадров : 25, 000 кадров/сек
    Цветовое пространство : YUV
    Субдискретизация насыщенности : 4: 2: 0
    Битовая глубина : 8 бит
    Тип развёртки : Прогрессивная
    Бит/(Пиксели*Кадры) : 0.041
    Размер потока : 1, 03 Гбайт (92%)
    Default : Да
    Forced : Нет
    Цветовой диапазон : Limited
    Основные цвета : BT.709
    Характеристики трансфера : BT.709
    Коэффициенты матрицы : BT.709
    Аудио
    Идентификатор : 2
    Формат : AC-3
    Формат/Информация : Audio Coding 3
    Идентификатор кодека : A_AC3
    Продолжительность : 1 ч. 9 м.
    Вид битрейта : Постоянный
    Битрейт : 192 Кбит/сек
    Каналы : 2 канала
    Расположение каналов : Front: L R
    Частота : 44, 1 КГц
    Частота кадров : 28, 711 кадров/сек (1536 SPF)
    Битовая глубина : 16 бит
    Метод сжатия : С потерями
    Размер потока : 95, 8 Мбайт (8%)
    Язык : Russian
    ServiceKind/String : Complete Main
    Default : Да
    Forced : Нет

    Скриншоты для ознакомления



    Все одноименные релизы в Клубе
    Время раздачи: 24/7 (круглосуточно) (до появления первых 3-5 скачавших)


    Онлайн видео Квартирник на НТВ у Маргулиса. Александр Розенбаум (03.31.2018) WEBRip [H.264



    Квартирник на НТВ у Маргулиса. Александр Розенбаум (03.31.2018) WEBRip [H.264/1080p-LQ]
    Рейтинг →
     (голосов: 1, оценка 4/5, голосовать можно 1 раз )

    Другие торренты по теме:

  • Квартирник у Маргулиса. Новогодний квартирник. Часть 2 (2016) WEBRip скачать через торрент бесплатно
  • Квартирник у Маргулиса. Новогодний квартирник. Часть 1 (2016) WEBRip скачать через торрент бесплатно
  • Квартирник у Маргулиса - Новогодний квартирник (две части) (2015) DVBRip
  • Квартирник у Маргулиса - ЧайФ (2015) DVBRip скачать через торрент бесплатно
  • Квартирник у Маргулиса - Несчастный Случай (2015) DVBRip скачать через торрент бесплатно
  • Квартирник у Маргулиса - СерьГа (2015) DVBRip скачать через торрент бесплатно
  • Квартирник у Маргулиса - Крематорий (2015) DVBRip скачать через торрент бесплатно
  • Квартирник у Маргулиса. 5 выпуск. Чиж (2015) WEBRip скачать через торрент бесплатно


    • Комментарии (0):

      Информация

      Информация

        Посетители, находящиеся в группе Гости, не могут оставлять комментарии в данной новости.

        ↓ Меню




        ↓ Опрос

        Вы добавили сайт в закладки?
        Да
        Нет


        Top 10 за месяц (Фильмы)