.
Авторизация | Регистрация
Хочешь лучшие торренты? Добавь свой email!
Добавить

Торрент скачать бесплатно

» » День дурака / April Fools Day (1986) WEB-DLRip [H.264 / 720p-LQ] торрент скачать бесплатно


    День дурака / April Fools Day (1986) WEB-DLRip [H.264 / 720p-LQ] торрент скачать бесплатно

    Опубликовал: Админ | Дата: 2-04-2018, 05:00 | .torrent скачали: 0

    День дурака / April Fools Day (1986) WEB-DLRip [H.264 / 720p-LQ]Производство: США/Paramount Pictures, Hometown Films, Guif Western Company
    Жанр: Триллер, детектив
    Режиссер: Фред Уолтон

    Актеры
    Джей Бэйкер, Пэт Барлоу, Ллойд Берри, Дебора Формен, Дебора Гудрич, Том Хитон, Майк Номэд, Кен Оландт, Гриффин О’Нил, Леа Пинсент ...

    Описание

    Когда Маффи приглашает своих друзей по колледжу в поместье своих родителей, находящееся на острове, она просто забывает предупредить их, что это может оказаться последним приглашением в их жизни. Как только друзья приезжают на остров, кто-то начинает потихоньку корректировать список приглашенных — и гости исчезают один за другим. Безобидные розыгрыши, традиционные в День дурака, превращаются в кровавый марафон на выживание...

    Возраст: 16+ (зрителям, достигшим 16 лет)
    Рейтинг MPAA: R (лицам до 17 лет обязательно присутствие взрослого)
    Продолжительность: 01: 29: 00
    Качество видео: WEB-DLRip
    Перевод: Профессиональный многоголосый, авторский
    Субтитры: Отсутствуют
    Видео: H.264/AVC, 1280x540, ~3796 Kbps
    Аудио #1: AC-3, 2 ch, 192 Kbps - Многоголосый (Paramount Channel)
    Аудио #2: AC-3, 6 ch, 384 Kbps - Авторский (С.Визгунов)
    Аудио #3: AC-3, 6 ch, 384 Kbps - Английский (Оригинал)

    Общее
    Уникальный идентификатор : 186282608065401122678475889678001340851 (0x8C24B9AD34DA1304AC5FD9E98DA381B3)
    Полное имя : E: NNMДень дуракаApril Fool\'s Day 1986 WEBDL 720p-LQ.mkv
    Формат : Matroska
    Версия формата : Version 4/Version 2
    Размер файла : 3, 02 Гбайт
    Продолжительность : 1 ч. 29 м.
    Общий поток : 4853 Кбит/сек
    Название фильма : April Foo\'ls Day
    Дата кодирования : UTC 2018-04-01 00: 06: 20
    Программа кодирования : mkvmerge v6.9.1 (\'Blue Panther\') 32bit built on Apr 18 2014 18: 15: 44
    Библиотека кодирования : libebml v1.3.0 + libmatroska v1.4.1
    Видео
    Идентификатор : 1
    Формат : AVC
    Формат/Информация : Advanced Video Codec
    Профиль формата : Main@L4.1
    Настройки формата : 5 Ref Frames
    Параметр CABAC формата : Нет
    Параметр RefFrames формата : 5 кадров
    Идентификатор кодека : V_MPEG4/ISO/AVC
    Продолжительность : 1 ч. 29 м.
    Битрейт : 3796 Кбит/сек
    Ширина : 1280 пикселей
    Высота : 540 пикселей
    Соотношение сторон : 2, 40: 1
    Режим частоты кадров : Постоянный
    Частота кадров : 23, 976 кадра/сек
    Цветовое пространство : YUV
    Субдискретизация насыщенности : 4: 2: 0
    Битовая глубина : 8 бит
    Тип развёртки : Прогрессивная
    Бит/(Пиксели*Кадры) : 0.229
    Размер потока : 2, 36 Гбайт (78%)
    Заголовок : April Fool\'s Day
    Язык : English
    Default : Да
    Forced : Нет
    Цветовой диапазон : Limited
    Основные цвета : BT.709
    Характеристики трансфера : BT.709
    Коэффициенты матрицы : BT.709
    Аудио #1
    Идентификатор : 2
    Формат : AC-3
    Формат/Информация : Audio Coding 3
    Идентификатор кодека : A_AC3
    Продолжительность : 1 ч. 29 м.
    Вид битрейта : Постоянный
    Битрейт : 192 Кбит/сек
    Каналы : 2 канала
    Расположение каналов : Front: L R
    Частота : 48, 0 КГц
    Частота кадров : 31, 250 кадров/сек (1536 SPF)
    Битовая глубина : 16 бит
    Метод сжатия : С потерями
    Размер потока : 122 Мбайт (4%)
    Заголовок : MVO
    Язык : Russian
    ServiceKind/String : Complete Main
    Default : Да
    Forced : Нет
    Аудио #2
    Идентификатор : 3
    Формат : AC-3
    Формат/Информация : Audio Coding 3
    Идентификатор кодека : A_AC3
    Продолжительность : 1 ч. 29 м.
    Вид битрейта : Постоянный
    Битрейт : 384 Кбит/сек
    Каналы : 6 каналов
    Расположение каналов : Front: L C R, Side: L R, LFE
    Частота : 48, 0 КГц
    Частота кадров : 31, 250 кадров/сек (1536 SPF)
    Битовая глубина : 16 бит
    Метод сжатия : С потерями
    Размер потока : 244 Мбайт (8%)
    Заголовок : AVO Vizgunov
    Язык : Russian
    ServiceKind/String : Complete Main
    Default : Нет
    Forced : Нет
    Аудио #3
    Идентификатор : 4
    Формат : AC-3
    Формат/Информация : Audio Coding 3
    Идентификатор кодека : A_AC3
    Продолжительность : 1 ч. 29 м.
    Вид битрейта : Постоянный
    Битрейт : 384 Кбит/сек
    Каналы : 6 каналов
    Расположение каналов : Front: L C R, Side: L R, LFE
    Частота : 48, 0 КГц
    Частота кадров : 31, 250 кадров/сек (1536 SPF)
    Битовая глубина : 16 бит
    Метод сжатия : С потерями
    Размер потока : 244 Мбайт (8%)
    Язык : English
    ServiceKind/String : Complete Main
    Default : Нет
    Forced : Нет

    Скриншоты для ознакомления



    Все одноименные релизы в Клубе Время раздачи: 24/7 (до появления первых 3-5 скачавших)


    Онлайн видео День дурака



    День дурака/April Fools Day (1986) WEB-DLRip [H.264/720p-LQ]
    Рейтинг →
     (голосов: 1, оценка 3/5, голосовать можно 1 раз )

    Другие торренты по теме:

  • День дурака (2014) WEB-DLRip скачать через торрент бесплатно
  • День дурака (2014) WEB-DLRip скачать через торрент бесплатно
  • День дурака (2014) WEB-DL [H.264 / 720p-LQ] скачать через торрент бесплатно
  • День дурака (2014) DVDRip скачать через торрент бесплатно
  • День дурака (2014) DVD5
  • День дурака (2014) WEB-DL [H.264 / 1080p-LQ]
  • День дурака (2014) WEB-DLRip [576p] iPad скачать через торрент бесплатно
  • VA - Зайцев нет. 1 апреля. День дурака (2016) [MP3|184-320 кб / с] <Pop, Dance, Rock, Retro>


    • Комментарии (0):

      Информация

      Информация

        Посетители, находящиеся в группе Гости, не могут оставлять комментарии в данной новости.

        ↓ Меню




        ↓ Опрос

        Вы добавили сайт в закладки?
        Да
        Нет


        Top 10 за месяц (Фильмы)