.
Авторизация | Регистрация
Хочешь лучшие торренты? Добавь свой email!
Добавить

Торрент скачать бесплатно

» » День дурака / Fools Day (2013) WEB-DLRip [H.264 / 720p-LQ] [VO] торрент скачать бесплатно


    День дурака / Fools Day (2013) WEB-DLRip [H.264 / 720p-LQ] [VO] торрент скачать бесплатно

    Опубликовал: Админ | Дата: 2-04-2018, 05:00 | .torrent скачали: 0

    День дурака / Fools Day (2013) WEB-DLRip [H.264 / 720p-LQ] [VO]Производство: США/STT Productions
    Жанр: Короткометражный, триллер, драма, комедия
    Режиссер: Коуди Блу Снайдер

    Актеры
    Митчелл Джарвис, Маркус Хэкни, Джастин Эбсатс, Филис Боуэн, Джереми Берч, Коул Канзано, Жанна Донохью, Анжелика Эспиноза, Лиам Фоли, Клэр Фоли, Чейз Хэйден

    Описание

    Первого апреля четвероклассники решили подшутить над своей учительницей...

    Релиз от: NNM-Club
    Продолжительность: 00: 19: 13
    Качество видео: WEB-DLRip
    Перевод: Одноголосый закадровый, любительский
    Субтитры: Русские
    Видео: H.264/AVC, 1280x720, ~1992 Kbps
    Аудио #1: AC-3, 2 ch, 192 Kbps | Русский
    Аудио #2: AC-3, 2 ch, 192 Kbps | Английский

    Общее
    Уникальный идентификатор : 217007820094827749266509385687845324770 (0xA3422F966694D8898C2D745D24B847E2)
    Полное имя : E: NNMДень дуракаFool\'s Day 2013 WEB-DL 720p NNM-Club.mkv
    Формат : Matroska
    Версия формата : Version 4/Version 2
    Размер файла : 327 Мбайт
    Продолжительность : 19 м. 13 с.
    Общий поток : 2378 Кбит/сек
    Название фильма : For NNM Club
    Дата кодирования : UTC 2018-04-01 07: 42: 53
    Программа кодирования : mkvmerge v6.9.1 (\'Blue Panther\') 32bit built on Apr 18 2014 18: 15: 44
    Библиотека кодирования : libebml v1.3.0 + libmatroska v1.4.1
    Видео
    Идентификатор : 1
    Формат : AVC
    Формат/Информация : Advanced Video Codec
    Профиль формата : High@L3.1
    Настройки формата : CABAC/4 Ref Frames
    Параметр CABAC формата : Да
    Параметр RefFrames формата : 4 кадра
    Идентификатор кодека : V_MPEG4/ISO/AVC
    Продолжительность : 19 м. 13 с.
    Битрейт : 1992 Кбит/сек
    Ширина : 1280 пикселей
    Высота : 720 пикселей
    Соотношение сторон : 16: 9
    Режим частоты кадров : Постоянный
    Частота кадров : 23, 976 (24000/1001) кадра/сек
    Цветовое пространство : YUV
    Субдискретизация насыщенности : 4: 2: 0
    Битовая глубина : 8 бит
    Тип развёртки : Прогрессивная
    Бит/(Пиксели*Кадры) : 0.090
    Размер потока : 268 Мбайт (82%)
    Библиотека кодирования : x264 core 129 r2245 bc13772
    Настройки программы : cabac=1/ref=3/deblock=1: 0: 0/analyse=0x3: 0x113/me=hex/subme=7/psy=1/psy_rd=1.00: 0.00/mixed_ref=1/me_range=16/chroma_me=1/trellis=1/8x8dct=1/cqm=0/deadzone=21, 11/fast_pskip=1/chroma_qp_offset=-2/threads=12/lookahead_threads=2/sliced_threads=0/nr=0/decimate=1/interlaced=0/bluray_compat=0/constrained_intra=0/bframes=3/b_pyramid=2/b_adapt=1/b_bias=0/direct=1/weightb=1/open_gop=0/weightp=2/keyint=72/keyint_min=24/scenecut=40/intra_refresh=0/rc_lookahead=40/rc=2pass/mbtree=1/bitrate=1992/ratetol=1.0/qcomp=0.60/qpmin=5/qpmax=69/qpstep=4/cplxblur=20.0/qblur=0.5/vbv_maxrate=3750/vbv_bufsize=12500/nal_hrd=none/ip_ratio=1.40/aq=1: 1.00
    Язык : English
    Default : Да
    Forced : Нет
    Аудио #1
    Идентификатор : 2
    Формат : AC-3
    Формат/Информация : Audio Coding 3
    Идентификатор кодека : A_AC3
    Продолжительность : 19 м. 13 с.
    Вид битрейта : Постоянный
    Битрейт : 192 Кбит/сек
    Каналы : 2 канала
    Расположение каналов : Front: L R
    Частота : 48, 0 КГц
    Частота кадров : 31, 250 кадров/сек (1536 SPF)
    Битовая глубина : 16 бит
    Метод сжатия : С потерями
    Размер потока : 26, 4 Мбайт (8%)
    Язык : Russian
    ServiceKind/String : Complete Main
    Default : Да
    Forced : Нет
    Аудио #2
    Идентификатор : 3
    Формат : AC-3
    Формат/Информация : Audio Coding 3
    Идентификатор кодека : A_AC3
    Продолжительность : 19 м. 13 с.
    Вид битрейта : Постоянный
    Битрейт : 192 Кбит/сек
    Каналы : 2 канала
    Расположение каналов : Front: L R
    Частота : 48, 0 КГц
    Частота кадров : 31, 250 кадров/сек (1536 SPF)
    Битовая глубина : 16 бит
    Метод сжатия : С потерями
    Размер потока : 26, 4 Мбайт (8%)
    Язык : English
    ServiceKind/String : Complete Main
    Default : Нет
    Forced : Нет
    Текст
    Идентификатор : 4
    Формат : UTF-8
    Идентификатор кодека : S_TEXT/UTF8
    Идентификатор кодека/Информация : UTF-8 Plain Text
    Язык : Russian
    Default : Нет
    Forced : Нет

    Скриншоты для ознакомления



    Все одноименные релизы в Клубе Время раздачи: 24/7 (до появления первых 3-5 скачавших)


    Онлайн видео День дурака



    День дурака/Fools Day (2013) WEB-DLRip [H.264/720p-LQ] [VO]
    Рейтинг →
     (голосов: 1, оценка 5/5, голосовать можно 1 раз )

    Другие торренты по теме:

  • День дурака (2014) WEB-DLRip скачать через торрент бесплатно
  • День дурака (2014) WEB-DLRip скачать через торрент бесплатно
  • День дурака (2014) WEB-DL [H.264 / 720p-LQ] скачать через торрент бесплатно
  • День дурака (2014) DVDRip скачать через торрент бесплатно
  • День дурака (2014) DVD5
  • День дурака (2014) WEB-DL [H.264 / 1080p-LQ]
  • День дурака (2014) WEB-DLRip [576p] iPad скачать через торрент бесплатно
  • VA - Зайцев нет. 1 апреля. День дурака (2016) [MP3|184-320 кб / с] <Pop, Dance, Rock, Retro>


    • Комментарии (0):

      Информация

      Информация

        Посетители, находящиеся в группе Гости, не могут оставлять комментарии в данной новости.

        ↓ Меню




        ↓ Опрос

        Вы добавили сайт в закладки?
        Да
        Нет


        Top 10 за месяц (Фильмы)