.
Авторизация | Регистрация
Хочешь лучшие торренты? Добавь свой email!
Добавить

Торрент скачать бесплатно

» » Человек-оркестр / Lhomme orchestre (1970) BDRip [H.264] торрент скачать бесплатно


    Человек-оркестр / Lhomme orchestre (1970) BDRip [H.264] торрент скачать бесплатно

    Опубликовал: Админ | Дата: 2-04-2018, 05:00 | .torrent скачали: 0

    Человек-оркестр / Lhomme orchestre (1970) BDRip [H.264]Производство: Франция/Gaumont Distribution, Gaumont International
    Жанр: Мюзикл, Комедия
    Режиссер: Серж Корбер
    Продюсер: Роже Дебельма, Робер Сюссфельд, Ален Пуаре

    Актеры
    Луи де Фюнес, Ноэль Адам, Оливье Де Фюнес, Дэниэл Беллю, Макс Деро, Тиберио Мурджа, Виттория Ди Сильверио, Мартина Келли, Паола Тедеско, Франко Вольпи

    Описание

    Балетный импресарио Эван-Эванс вместе со своим племянником Филиппом тщательно следит, чтобы его танцовщицы не имели контактов с мужчинами, так как это может помешать их работе. Но во время турне по Италии выясняется, что у одной из девушек уже есть ребенок. Тирану Эвансу приходится опекать его, так как он считает, что малыш — сын Филиппа.
    Через некоторое время появляется еще один ребенок, на этот раз — действительно внучатый племянник Эванса. Новоиспеченный дедушка готов сойти с ума, а большое турне в итоге превращается в большой сумасшедший дом.

    Возраст: 12+ (зрителям, достигшим 12 лет)
    Релиз от: Охрана (NNMCLUB)
    Продолжительность: 01: 25: 30
    Качество видео: BDRip
    Перевод: Дублированный, двуголосый закадровый
    Субтитры: Русские, французские, английские
    Видео: AVC/H.264, 1024x432, ~3185 Kbps
    Аудио 1: Русский, AC3, 2 ch, 192 Kbps, 48.0 kHz (Dub, киностудия Союзмультфильм)
    Аудио 2: Русский, AC3, 2 ch, 192 Kbps, 48.0 kHz (DVO, НТВ+)
    Аудио 3: Русский, AC3, 2 ch, 192 Kbps, 48.0 kHz (DVO, студия ИНИС)
    Аудио 4: Французский, AC3, 2 ch, 192 Kbps, 48.0 kHz (Оригинал)

    Общее
    Уникальный идентификатор : 237832522187223808641422459714620858009 (0xB2ECE0ABE5D355DA9C5C42AF47479E99)
    Полное имя : F: DownloadsЧеловек-оркестр. 1970. NNMCLUB.mkv
    Формат : Matroska
    Версия формата : Version 4/Version 2
    Размер файла : 2, 36 Гбайт
    Продолжительность : 1 ч. 25 м.
    Общий поток : 3956 Кбит/сек
    Дата кодирования : UTC 2018-03-28 22: 28: 35
    Программа кодирования : mkvmerge v7.9.0 (\'Birds\') 64bit
    Библиотека кодирования : libebml v1.3.1 + libmatroska v1.4.2
    Видео
    Идентификатор : 1
    Формат : AVC
    Формат/Информация : Advanced Video Codec
    Профиль формата : High@L4.1
    Настройки формата : CABAC/10 Ref Frames
    Параметр CABAC формата : Да
    Параметр RefFrames формата : 10 кадров
    Идентификатор кодека : V_MPEG4/ISO/AVC
    Продолжительность : 1 ч. 25 м.
    Битрейт : 3185 Кбит/сек
    Ширина : 1024 пикселя
    Высота : 432 пикселя
    Соотношение сторон : 2, 40: 1
    Режим частоты кадров : Постоянный
    Частота кадров : 24, 000 кадра/сек
    Цветовое пространство : YUV
    Субдискретизация насыщенности : 4: 2: 0
    Битовая глубина : 8 бит
    Тип развёртки : Прогрессивная
    Бит/(Пиксели*Кадры) : 0.300
    Размер потока : 1, 90 Гбайт (81%)
    Заголовок : L\'homme orchestre
    Библиотека кодирования : x264 core 146 r2538 121396c
    Настройки программы : cabac=1/ref=10/deblock=1: -1: -1/analyse=0x3: 0x113/me=umh/subme=10/psy=1/psy_rd=1.00: 0.10/mixed_ref=1/me_range=32/chroma_me=1/trellis=2/8x8dct=1/cqm=0/deadzone=21, 11/fast_pskip=0/chroma_qp_offset=-3/threads=6/lookahead_threads=1/sliced_threads=0/nr=0/decimate=0/interlaced=0/bluray_compat=0/constrained_intra=0/bframes=7/b_pyramid=2/b_adapt=2/b_bias=0/direct=3/weightb=1/open_gop=0/weightp=2/keyint=250/keyint_min=25/scenecut=40/intra_refresh=0/rc_lookahead=60/rc=2pass/mbtree=1/bitrate=3185/ratetol=1.0/qcomp=0.60/qpmin=0/qpmax=69/qpstep=4/cplxblur=20.0/qblur=0.5/vbv_maxrate=14000/vbv_bufsize=14000/nal_hrd=none/filler=0/ip_ratio=1.40/aq=1: 1.00
    Язык : French
    Default : Да
    Forced : Нет
    Аудио #1
    Идентификатор : 2
    Формат : AC-3
    Формат/Информация : Audio Coding 3
    Идентификатор кодека : A_AC3
    Продолжительность : 1 ч. 25 м.
    Вид битрейта : Постоянный
    Битрейт : 192 Кбит/сек
    Каналы : 2 канала
    Расположение каналов : Front: L R
    Частота : 48, 0 КГц
    Частота кадров : 31, 250 кадров/сек (1536 SPF)
    Битовая глубина : 16 бит
    Метод сжатия : С потерями
    Размер потока : 117 Мбайт (5%)
    Заголовок : Дубляж
    Язык : Russian
    ServiceKind/String : Complete Main
    Default : Да
    Forced : Нет
    Аудио #2
    Идентификатор : 3
    Формат : AC-3
    Формат/Информация : Audio Coding 3
    Идентификатор кодека : A_AC3
    Продолжительность : 1 ч. 25 м.
    Вид битрейта : Постоянный
    Битрейт : 192 Кбит/сек
    Каналы : 2 канала
    Расположение каналов : Front: L R
    Частота : 48, 0 КГц
    Частота кадров : 31, 250 кадров/сек (1536 SPF)
    Битовая глубина : 16 бит
    Метод сжатия : С потерями
    Размер потока : 117 Мбайт (5%)
    Заголовок : Двуголосый закадровый, НТВ+
    Язык : Russian
    ServiceKind/String : Complete Main
    Default : Нет
    Forced : Нет
    Аудио #3
    Идентификатор : 4
    Формат : AC-3
    Формат/Информация : Audio Coding 3
    Идентификатор кодека : A_AC3
    Продолжительность : 1 ч. 25 м.
    Вид битрейта : Постоянный
    Битрейт : 192 Кбит/сек
    Каналы : 2 канала
    Расположение каналов : Front: L R
    Частота : 48, 0 КГц
    Частота кадров : 31, 250 кадров/сек (1536 SPF)
    Битовая глубина : 16 бит
    Метод сжатия : С потерями
    Размер потока : 117 Мбайт (5%)
    Заголовок : Двуголосый закадровый, ИНИС
    Язык : Russian
    ServiceKind/String : Complete Main
    Default : Нет
    Forced : Нет
    Аудио #4
    Идентификатор : 5
    Формат : AC-3
    Формат/Информация : Audio Coding 3
    Идентификатор кодека : A_AC3
    Продолжительность : 1 ч. 25 м.
    Вид битрейта : Постоянный
    Битрейт : 192 Кбит/сек
    Каналы : 2 канала
    Расположение каналов : Front: L R
    Частота : 48, 0 КГц
    Частота кадров : 31, 250 кадров/сек (1536 SPF)
    Битовая глубина : 16 бит
    Метод сжатия : С потерями
    Размер потока : 117 Мбайт (5%)
    Заголовок : Оригинал
    Язык : French
    ServiceKind/String : Complete Main
    Default : Нет
    Forced : Нет
    Текст #1
    Идентификатор : 6
    Формат : UTF-8
    Идентификатор кодека : S_TEXT/UTF8
    Идентификатор кодека/Информация : UTF-8 Plain Text
    Продолжительность : 1 ч. 25 м.
    Битрейт : 74 бит/сек
    ElementCount : 792
    Размер потока : 46, 4 Кбайт (0%)
    Заголовок : DUB
    Язык : Russian
    Default : Нет
    Forced : Нет
    Текст #2
    Идентификатор : 7
    Формат : UTF-8
    Идентификатор кодека : S_TEXT/UTF8
    Идентификатор кодека/Информация : UTF-8 Plain Text
    Продолжительность : 1 ч. 25 м.
    Битрейт : 60 бит/сек
    ElementCount : 656
    Размер потока : 37, 7 Кбайт (0%)
    Заголовок : NTV
    Язык : Russian
    Default : Нет
    Forced : Нет
    Текст #3
    Идентификатор : 8
    Формат : UTF-8
    Идентификатор кодека : S_TEXT/UTF8
    Идентификатор кодека/Информация : UTF-8 Plain Text
    Продолжительность : 1 ч. 25 м.
    Битрейт : 37 бит/сек
    ElementCount : 1258
    Размер потока : 23, 4 Кбайт (0%)
    Заголовок : FULL
    Язык : French
    Default : Нет
    Forced : Нет
    Текст #4
    Идентификатор : 9
    Формат : UTF-8
    Идентификатор кодека : S_TEXT/UTF8
    Идентификатор кодека/Информация : UTF-8 Plain Text
    Продолжительность : 1 ч. 22 м.
    Битрейт : 26 бит/сек
    ElementCount : 396
    Размер потока : 16, 2 Кбайт (0%)
    Заголовок : FULL
    Язык : English
    Default : Нет
    Forced : Нет

    Скриншоты для ознакомления




    Все одноименные релизы в Клубе
    Время раздачи: с 13: 00 до 01: 00 МСК, выходные круглосуточно (до появления первых 3-5 скачавших)


    Онлайн видео Человек-оркестр



    Человек-оркестр/Lhomme orchestre (1970) BDRip [H.264]
    Рейтинг →
     (голосов: 1, оценка 3/5, голосовать можно 1 раз )

    Другие торренты по теме:

  • Человек-оркестр / Lhomme orchestre (1970) BDRip [H.264 / 720p]


    • Комментарии (0):

      Информация

      Информация

        Посетители, находящиеся в группе Гости, не могут оставлять комментарии в данной новости.

        ↓ Меню




        ↓ Опрос

        Вы добавили сайт в закладки?
        Да
        Нет


        Top 10 за месяц (Фильмы)