.
Авторизация | Регистрация
Хочешь лучшие торренты? Добавь свой email!
Добавить

Торрент скачать бесплатно

» » Авантюристы / Les Morfalous (1984) HDTVRip [H.264 / 720p-LQ] торрент скачать бесплатно


    Авантюристы / Les Morfalous (1984) HDTVRip [H.264 / 720p-LQ] торрент скачать бесплатно

    Опубликовал: Админ | Дата: 2-04-2018, 05:00 | .torrent скачали: 0

    Авантюристы / Les Morfalous (1984) HDTVRip [H.264 / 720p-LQ]Производство: Франция. Carthago Films S.a.r.l., Cerito Films, Soprofilms, V. Films
    Жанр: Приключения, Боевик, Военный, Комедия
    Режиссер: Анри Вернёй

    Актеры
    Жан-Поль Бельмондо, Жак Вильре, Мишель Константен, Мишель Кретон, Маттиас Хабих, Франсуа Перро, Морис Озель, Жерар Бур, Джуниор Джон Дэвид, Робер Ломбар

    Описание

    Экранизация романа Пьера Синьяка.
    Во время Второй мировой войны, в период Тунисской кампании в апреле 1943 года, французские войска выбили немцев из маленького тунисского городка Эль-Ксур. В сейфе городского банка находилось большое количество золотых слитков стоимостью шесть миллиардов франков. Поскольку в городке не осталось ни одной живой души, для перевозки этого золота в безопасное место — тыловой город Сфакс, послали специальный фургон в сопровождении двух грузовиков и джипа с тридцатью французскими легионерами для сопровождения и охраны.
    Когда конвой прибыл на место, то был внезапно почти полностью уничтожен немецким подразделением — 4-й ротой под командованием капитана Ульриха Дитерле (Пьер Земл), которая неизвестно как оказалась в местной крепости. В живых осталось только четверо: унтер офицер Эдуард Маюзар (Мишель Константен), сержант Пьер Оганьер (Жан-Поль Бельмондо), легионер Буасье (Мишель Кретон) и солдат Борзик. Прячась в здании, они ночью обнаружили уцелевшего артиллериста капрала Бераля (Жак Вильре) из батареи морской пехоты…

    Возраст: 16+ (зрителям, достигшим 16 лет)
    Продолжительность: 01: 41: 49
    Качество видео: HDTVRip
    Перевод: Многоголосый закадровый, двухголосый закадровый
    Субтитры: Русские
    Видео: AVC/H.264, 1200x720, ~4 500 kbps
    Аудио 1: AC3, 48 KHz, 2ch, 192 kbps | Русский – MVO (ТРК Останкино)
    Аудио 2: AC3, 48 KHz, 2ch, 192 kbps | Русский - DVO
    Аудио 3: AC3, 48 KHz, 2ch, 256 kbps | Французский (Оригинал)

    Общее
    Уникальный идентификатор : 193455138024173594904777918525799977418 (0x918A1AB4D28E6E21A74694B4C7E0D1CA)
    Полное имя : I: Жан-Поль БельмондоАвантюристыАвантюристы.1984.mkv
    Формат : Matroska
    Версия формата : Version 4/Version 2
    Размер файла : 3, 65 Гбайт
    Продолжительность : 1 ч. 41 м.
    Общий поток : 5138 Кбит/сек
    Название фильма : Release for Topmost
    Дата кодирования : UTC 2018-04-01 06: 04: 16
    Программа кодирования : mkvmerge v6.2.0 (\'Promised Land\') built on Apr 28 2013 12: 22: 01
    Библиотека кодирования : libebml v1.3.0 + libmatroska v1.4.0
    Attachment : Yes/Yes
    Видео
    Идентификатор : 1
    Формат : AVC
    Формат/Информация : Advanced Video Codec
    Профиль формата : High@L4.1
    Параметр CABAC формата : Да
    Параметр ReFrames формата : 10 кадров
    Идентификатор кодека : V_MPEG4/ISO/AVC
    Продолжительность : 1 ч. 41 м.
    Битрейт : 4500 Кбит/сек
    Ширина : 1200 пикселей
    Высота : 720 пикселей
    Соотношение сторон : 1, 667
    Режим частоты кадров : Постоянный
    Частота кадров : 25, 000 кадров/сек
    Цветовое пространство : YUV
    Субдискретизация насыщенности : 4: 2: 0
    Битовая глубина : 8 бит
    Тип развёртки : Прогрессивная
    Бит/(Пиксели*Кадры) : 0.208
    Размер потока : 3, 13 Гбайт (86%)
    Заголовок : Авантюристы.1984 (Release for Topmost)
    Библиотека кодирования : x264 core 146 r2538 121396c
    Настройки программы : cabac=1/ref=10/deblock=1: -3: -3/analyse=0x3: 0x113/me=umh/subme=11/psy=1/psy_rd=1.00: 0.15/mixed_ref=1/me_range=32/chroma_me=1/trellis=2/8x8dct=1/cqm=0/deadzone=21, 11/fast_pskip=0/chroma_qp_offset=-3/threads=12/lookahead_threads=2/sliced_threads=0/nr=0/decimate=0/interlaced=0/bluray_compat=0/constrained_intra=0/bframes=8/b_pyramid=2/b_adapt=2/b_bias=0/direct=3/weightb=1/open_gop=0/weightp=2/keyint=240/keyint_min=23/scenecut=40/intra_refresh=0/rc_lookahead=40/rc=2pass/mbtree=1/bitrate=4500/ratetol=1.0/qcomp=0.60/qpmin=0/qpmax=69/qpstep=4/cplxblur=20.0/qblur=0.5/ip_ratio=1.40/aq=1: 0.90
    Язык : French
    Default : Да
    Forced : Нет
    Аудио #1
    Идентификатор : 2
    Формат : AC-3
    Формат/Информация : Audio Coding 3
    Расширение режима : CM (complete main)
    Параметр Endianness формата : Big
    Идентификатор кодека : A_AC3
    Продолжительность : 1 ч. 41 м.
    Вид битрейта : Постоянный
    Битрейт : 192 Кбит/сек
    Каналы : 2 канала
    Расположение каналов : Front: L R
    Частота : 48, 0 КГц
    Битовая глубина : 16 бит
    Метод сжатия : С потерями
    Задержка видео : 284 мс.
    Размер потока : 140 Мбайт (4%)
    Заголовок : AC3, 2ch, 192 kbps - MVO (Останкино)
    Язык : Russian
    Default : Да
    Forced : Нет
    Аудио #2
    Идентификатор : 3
    Формат : AC-3
    Формат/Информация : Audio Coding 3
    Расширение режима : CM (complete main)
    Параметр Endianness формата : Big
    Идентификатор кодека : A_AC3
    Продолжительность : 1 ч. 41 м.
    Вид битрейта : Постоянный
    Битрейт : 192 Кбит/сек
    Каналы : 2 канала
    Расположение каналов : Front: L R
    Частота : 48, 0 КГц
    Битовая глубина : 16 бит
    Метод сжатия : С потерями
    Задержка видео : 4 мс.
    Размер потока : 140 Мбайт (4%)
    Заголовок : AC3, 2ch, 192 kbps - DVO
    Язык : Russian
    Default : Нет
    Forced : Нет
    Аудио #3
    Идентификатор : 4
    Формат : AC-3
    Формат/Информация : Audio Coding 3
    Расширение режима : CM (complete main)
    Параметр Endianness формата : Big
    Идентификатор кодека : A_AC3
    Продолжительность : 1 ч. 41 м.
    Вид битрейта : Постоянный
    Битрейт : 256 Кбит/сек
    Каналы : 2 канала
    Расположение каналов : Front: L R
    Частота : 48, 0 КГц
    Битовая глубина : 16 бит
    Метод сжатия : С потерями
    Задержка видео : 4 мс.
    Размер потока : 186 Мбайт (5%)
    Заголовок : AC3, 2ch, 256 kbps - Original
    Язык : French
    Default : Нет
    Forced : Нет
    Текст
    Идентификатор : 5
    Формат : UTF-8
    Идентификатор кодека : S_TEXT/UTF8
    Идентификатор кодека/Информация : UTF-8 Plain Text
    Язык : Russian
    Default : Да
    Forced : Нет

    Скриншоты для ознакомления



    Все одноименные релизы в Клубе
    Время раздачи: 24/7 до 5 скачавших (до появления первых 3-5 скачавших)


    Онлайн видео Авантюристы



    Авантюристы/Les Morfalous (1984) HDTVRip [H.264/720p-LQ]
    Рейтинг →
     (голосов: 1, оценка 4/5, голосовать можно 1 раз )

    Другие торренты по теме:

  • Авантюристы (2014) WEB-DL [720p] ATV
  • Авантюристы (2014) WEB-DL [H.264 / 720p-LQ]
  • Роман Белоусов | Знаменитые авантюристы (1996) [FB2]
  • Авантюристы / The Adventurers (2017) WEB-DLRip [H.264 / 720p] [MVO, AD]
  • Авантюристы / The Adventurers (2017) WEB-DLRip [MVO ][AD]
  • Авантюристы / The Adventurers (2017) WEB-DLRip [H.264 / 1080p-LQ] [MVO] [AD]
  • Авантюристы / The Adventurers (2017) BDRip [H.264 / 1080p] [MVO]
  • Авантюристы / The Adventurers (2017) BDRip [MVO]


    • Комментарии (0):

      Информация

      Информация

        Посетители, находящиеся в группе Гости, не могут оставлять комментарии в данной новости.

        ↓ Меню




        ↓ Опрос

        Вы добавили сайт в закладки?
        Да
        Нет


        Top 10 за месяц (Фильмы)