.
Авторизация | Регистрация
Хочешь лучшие торренты? Добавь свой email!
Добавить

Торрент скачать бесплатно

» » Два билета на дневной сеанс (1966) DVB [H.264 / 1080i-LQ] торрент скачать бесплатно


    Два билета на дневной сеанс (1966) DVB [H.264 / 1080i-LQ] торрент скачать бесплатно

    Опубликовал: Админ | Дата: 2-04-2018, 05:00 | .torrent скачали: 3

    Два билета на дневной сеанс (1966) DVB [H.264 / 1080i-LQ]Производство: СССР/Ленфильм
    Жанр: Криминал, Детектив
    Режиссер: Герберт Раппапорт

    Актеры
    Александр Збруев, Земфира Цахилова, Игорь Горбачев, Петр Горин, Алексей Кожевников, Никита Подгорный, Валентина Сперантова, Бруно Фрейндлих, Лариса Барабанова, Владимир Кенигсон, Людмила Чурсина, Станислав Чекан

    Описание

    Ответственного комсомольца Алешина райком направляет работать в ОБХСС. Однако молодой человек абсолютно не чувствует в себе призвания к этому делу и подает рапорт об увольнении. Начальник готов удовлетворить его просьбу, но только после того, как Алешин выполнит одно очень важное задание. Дело в следующем: у двух преступников, занимающихся валютными махинациями, обнаружены билеты на один сеанс в кинотеатр Ударник. Казалось бы ничего криминального, однако эти два использованных билета оказываются на одно и то же место, но на разные дни. Оперативникам это кажется странным, и начальство поручает Алешину все выяснить. Молодой человек начинает раскручивать это дело. Самый обыкновенный билет на киносеанс неожиданно оказывается паролем преступников. Алешин с помощью этой информации внедряется в банду…

    Возраст: 12+ (зрителям, достигшим 12 лет)
    Продолжительность: 01: 32: 29
    Качество видео: DVB 1080i
    Видео: AVC/H.264, 1920x1080, ~8429 Kbps
    Аудио #1: MP2, 48 kHz, 2 ch, 224 kbps
    Аудио #2: АС-3, 48 kHz, 6 ch, 384 kbps

    Общее
    Идентификатор : 16 (0x10)
    Полное имя : Dva bileta na dnevnoy seans_HD.ts
    Формат : MPEG-TS
    Размер файла : 6, 15 Гбайт
    Продолжительность : 1 ч. 32 м.
    Режим общего битрейта : Переменный
    Общий поток : 9513 Кбит/сек
    Видео
    Идентификатор : 1902 (0x76E)
    Идентификатор меню : 92 (0x5C)
    Формат : AVC
    Формат/Информация : Advanced Video Codec
    Профиль формата : High@L4
    Настройки формата : CABAC/3 Ref Frames
    Параметр CABAC формата : Да
    Параметр RefFrames формата : 3 кадра
    Параметр GOP формата : M=4, N=32
    Идентификатор кодека : 27
    Продолжительность : 1 ч. 32 м.
    Битрейт : 8429 Кбит/сек
    Ширина : 1920 пикселей
    Высота : 1080 пикселей
    Соотношение сторон : 16: 9
    Частота кадров : 25, 000 кадров/сек
    Стандарт вещания : PAL
    Цветовое пространство : YUV
    Субдискретизация насыщенности : 4: 2: 0
    Битовая глубина : 8 бит
    Тип развёртки : Чересстрочная
    Метод сохранения типа развёртки : Раздельные поля
    Порядок развёртки : Верхнее поле первое
    Бит/(Пиксели*Кадры) : 0.163
    Размер потока : 5, 45 Гбайт (89%)
    Цветовой диапазон : Limited
    Основные цвета : BT.709
    Характеристики трансфера : BT.709
    Коэффициенты матрицы : BT.709
    Аудио #1
    Идентификатор : 2902 (0xB56)
    Идентификатор меню : 92 (0x5C)
    Формат : MPEG Audio
    Версия формата : Version 1
    Профиль формата : Layer 2
    Идентификатор кодека : 4
    Продолжительность : 1 ч. 32 м.
    Вид битрейта : Постоянный
    Битрейт : 224 Кбит/сек
    Каналы : 2 канала
    Частота : 48, 0 КГц
    Метод сжатия : С потерями
    Задержка видео : 92 мс.
    Размер потока : 148 Мбайт (2%)
    Язык : std
    Язык, дополнительно : Clean effects
    Аудио #2
    Идентификатор : 3902 (0xF3E)
    Идентификатор меню : 92 (0x5C)
    Формат : AC-3
    Формат/Информация : Audio Coding 3
    Параметр Endianness формата : Big
    Идентификатор кодека : 6
    Продолжительность : 1 ч. 32 м.
    Вид битрейта : Постоянный
    Битрейт : 384 Кбит/сек
    Каналы : 6 каналов
    Расположение каналов : Front: L C R, Side: L R, LFE
    Частота : 48, 0 КГц
    Частота кадров : 31, 250 кадров/сек (1536 SPF)
    Битовая глубина : 16 бит
    Метод сжатия : С потерями
    Задержка видео : 29 мс.
    Размер потока : 254 Мбайт (4%)
    Язык : std
    Язык, дополнительно : Clean effects
    ServiceKind/String : Complete Main
    Прочее #1
    Идентификатор : 33 (0x21)-100
    Идентификатор меню : 92 (0x5C)
    Формат : Teletext
    Прочее #2
    Идентификатор : 33 (0x21)-888
    Идентификатор меню : 92 (0x5C)
    Формат : Teletext
    Язык, дополнительно : Additional information page

    Скриншоты для ознакомления



    Все одноименные релизы в Клубе
    Время раздачи: Пн-Пт с 18: 00 до 22: 00 (до появления первых 3-5 скачавших)


    Онлайн видео Два билета на дневной сеанс (1966) DVB [H.264



    Два билета на дневной сеанс (1966) DVB [H.264/1080i-LQ]
    Рейтинг →
     (голосов: 1, оценка 5/5, голосовать можно 1 раз )

    Другие торренты по теме:

  • Виктория Платова | Два билета в никогда (2016) [FB2]
  • Два билета в рай / Two Tickets to Paradise (2006) DVDRip
  • Андрей Круз, Андрей Царев | Два билета туда (2018) [FB2]
  • Без Билета - Маяк (2018) [MP3|320 Kbps] <Rock>
  • Андрей Круз, Андрей Царев | Земля лишних. Два билета туда (2018) [MP3]


    • Комментарии (0):

      Информация

      Информация

        Посетители, находящиеся в группе Гости, не могут оставлять комментарии в данной новости.

        ↓ Меню




        ↓ Опрос

        Вы добавили сайт в закладки?
        Да
        Нет


        Top 10 за месяц (Фильмы)