.
Авторизация | Регистрация
Хочешь лучшие торренты? Добавь свой email!
Добавить

Торрент скачать бесплатно

  • support: webmaster@btracker.org
» » Дерсу Узала (1975) WEBRip [H.264 / 1080p-LQ] (серии 1-2 из 2) торрент скачать бесплатно


    Дерсу Узала (1975) WEBRip [H.264 / 1080p-LQ] (серии 1-2 из 2) торрент скачать бесплатно

    Опубликовал: Админ | Дата: 2-04-2018, 05:00 | .torrent скачали: 1

    Дерсу Узала (1975) WEBRip [H.264 / 1080p-LQ] (серии 1-2 из 2)Производство: СССР, Япония
    Жанр: Драма, приключения, биография
    Режиссер: Акира Куросава

    Актеры
    Максим Мунзук, Юрий Соломин, Владимир Кремена, Александр Пятков, Светлана Данильченко, Дмитрий Коршиков, Суйменкул Чокморов, Михаил Бычков

    Описание

    Сюжет основан на одноимённом романе путешественника и исследователя Дальнего Востока Владимира Арсеньева (1872-1930).
    В центре повествования образ таежного охотника Дерсу Узала — мудрого, доброго и отважного человека, связанного с Арсеньевым искренней дружбой.

    Возраст: 16+ (зрителям, достигшим 16 лет)
    Рейтинг MPAA: G (нет возрастных ограничений)
    Релиз от: Aлexandr
    Продолжительность: 01: 07: 38 + 01: 08: 25
    Качество видео: WEBRip
    Субтитры: Отсутствуют
    Видео: AVC/H.264, 1920x822 (2.35: 1), ~2345 Kbps
    Аудио: AC3, 2 ch, 192 Kbps

    Общее
    Уникальный идентификатор : 105056428227531871159803723658642771023 (0x4F0921D1223B002BCE89CE7FD776CC4F)
    Полное имя : D: Дерсу Узала (1975).by.АлехаndrСерия 1.by.Алехаndr.mkv
    Формат : Matroska
    Версия формата : Version 4/Version 2
    Размер файла : 1, 20 Гбайт
    Продолжительность : 1 ч. 7 м.
    Общий поток : 2540 Кбит/сек
    Дата кодирования : UTC 2018-03-31 10: 35: 28
    Программа кодирования : mkvmerge v21.0.0 (\'Tardigrades Will Inherit The Earth\') 64-bit
    Библиотека кодирования : libebml v1.3.5 + libmatroska v1.4.8/Lavf57.71.100
    Видео
    Идентификатор : 1
    Формат : AVC
    Формат/Информация : Advanced Video Codec
    Профиль формата : Main@L4
    Настройки формата : CABAC/2 Ref Frames
    Параметр CABAC формата : Да
    Параметр RefFrames формата : 2 кадра
    Параметр GOP формата : M=1, N=25
    Идентификатор кодека : V_MPEG4/ISO/AVC
    Продолжительность : 1 ч. 7 м.
    Битрейт : 2346 Кбит/сек
    Ширина : 1920 пикселей
    Высота : 822 пикселя
    Соотношение сторон : 2, 35: 1
    Режим частоты кадров : Постоянный
    Частота кадров : 25, 000 кадров/сек
    Цветовое пространство : YUV
    Субдискретизация насыщенности : 4: 2: 0
    Битовая глубина : 8 бит
    Тип развёртки : Прогрессивная
    Бит/(Пиксели*Кадры) : 0.059
    Размер потока : 1, 11 Гбайт (92%)
    Default : Да
    Forced : Нет
    Аудио
    Идентификатор : 2
    Формат : AC-3
    Формат/Информация : Audio Coding 3
    Идентификатор кодека : A_AC3
    Продолжительность : 1 ч. 7 м.
    Вид битрейта : Постоянный
    Битрейт : 192 Кбит/сек
    Каналы : 2 канала
    Расположение каналов : Front: L R
    Частота : 48, 0 КГц
    Частота кадров : 31, 250 кадров/сек (1536 SPF)
    Битовая глубина : 16 бит
    Метод сжатия : С потерями
    Размер потока : 92, 9 Мбайт (8%)
    ServiceKind/String : Complete Main
    Default : Да
    Forced : Нет
    Общее
    Уникальный идентификатор : 154949564359127485580112267929877374614 (0x74923359A9BFDBCDBC9ED50F9AB26696)
    Полное имя : D: Дерсу Узала (1975).by.АлехаndrСерия 2.by.Алехаndr.mkv
    Формат : Matroska
    Версия формата : Version 4/Version 2
    Размер файла : 1, 21 Гбайт
    Продолжительность : 1 ч. 8 м.
    Общий поток : 2536 Кбит/сек
    Дата кодирования : UTC 2018-03-31 12: 10: 40
    Программа кодирования : mkvmerge v21.0.0 (\'Tardigrades Will Inherit The Earth\') 64-bit
    Библиотека кодирования : libebml v1.3.5 + libmatroska v1.4.8/Lavf57.71.100
    Видео
    Идентификатор : 1
    Формат : AVC
    Формат/Информация : Advanced Video Codec
    Профиль формата : Main@L4
    Настройки формата : CABAC/2 Ref Frames
    Параметр CABAC формата : Да
    Параметр RefFrames формата : 2 кадра
    Параметр GOP формата : M=1, N=25
    Идентификатор кодека : V_MPEG4/ISO/AVC
    Продолжительность : 1 ч. 8 м.
    Битрейт : 2342 Кбит/сек
    Ширина : 1920 пикселей
    Высота : 822 пикселя
    Соотношение сторон : 2, 35: 1
    Режим частоты кадров : Постоянный
    Частота кадров : 25, 000 кадров/сек
    Цветовое пространство : YUV
    Субдискретизация насыщенности : 4: 2: 0
    Битовая глубина : 8 бит
    Тип развёртки : Прогрессивная
    Бит/(Пиксели*Кадры) : 0.059
    Размер потока : 1, 12 Гбайт (92%)
    Default : Да
    Forced : Нет
    Аудио
    Идентификатор : 2
    Формат : AC-3
    Формат/Информация : Audio Coding 3
    Идентификатор кодека : A_AC3
    Продолжительность : 1 ч. 8 м.
    Вид битрейта : Постоянный
    Битрейт : 192 Кбит/сек
    Каналы : 2 канала
    Расположение каналов : Front: L R
    Частота : 48, 0 КГц
    Частота кадров : 31, 250 кадров/сек (1536 SPF)
    Битовая глубина : 16 бит
    Метод сжатия : С потерями
    Размер потока : 94, 0 Мбайт (8%)
    ServiceKind/String : Complete Main
    Default : Да
    Forced : Нет

    Скриншоты для ознакомления



    Все одноименные релизы в Клубе
    Время раздачи: 24/7 (круглосуточно) (до появления первых 3-5 скачавших)


    Онлайн видео Дерсу Узала (1975) WEBRip [H.264



    Дерсу Узала (1975) WEBRip [H.264/1080p-LQ] (серии 1-2 из 2)
    Рейтинг →
     (голосов: 1, оценка 4/5, голосовать можно 1 раз )

    Другие торренты по теме:

  • Дерсу Узала (1975) HDTV 720pскачать через торрент бесплатно


    • Комментарии (0):

      Информация

      Информация

        Посетители, находящиеся в группе Гости, не могут оставлять комментарии в данной новости.

        ↓ Меню




        ↓ Опрос

        Вы добавили сайт в закладки?
        Да
        Нет


        Top 10 за месяц (Фильмы)