.
Авторизация | Регистрация
Хочешь лучшие торренты? Добавь свой email!
Добавить

Торрент скачать бесплатно

» » Не может быть! (1975) WEBRip [H.264 / 1080p-LQ] торрент скачать бесплатно


    Не может быть! (1975) WEBRip [H.264 / 1080p-LQ] торрент скачать бесплатно

    Опубликовал: Админ | Дата: 2-04-2018, 05:00 | .torrent скачали: 1

    Не может быть! (1975) WEBRip [H.264 / 1080p-LQ]Производство: СССР
    Жанр: Мелодрама, комедия
    Режиссер: Леонид Гайдай

    Актеры
    Михаил Пуговкин, Нина Гребешкова, Вячеслав Невинный, Михаил Светин, Олег Даль, Светлана Крючкова, Наталья Селезнёва, Леонид Куравлёв, Валентина Теличкина, Георгий Вицин

    Описание

    Фильм включает три новеллы о негативных явлениях провинциальной жизни молодой страны Советов: тупости, пьянстве, стяжательстве, бездуховности — всем том, что и сейчас существует благополучно и повсеместно.

    Возраст: 12+ (зрителям, достигшим 12 лет)
    Релиз от: Алехаndr
    Продолжительность: 01: 31: 39
    Качество видео: WEBRip
    Субтитры: Отсутствуют
    Видео: AVC/H.264, 1510x1080, ~3910 Kbps
    Аудио: AC3, 2 ch, 192 Kbps

    Общее
    Уникальный идентификатор : 133355451349736214325113623981637061831 (0x645353611628487262A8E5F84B254CC7)
    Полное имя : D: Не может быть (1975).by.Алехаndr.mkv
    Формат : Matroska
    Версия формата : Version 4/Version 2
    Размер файла : 2, 63 Гбайт
    Продолжительность : 1 ч. 31 м.
    Общий поток : 4102 Кбит/сек
    Дата кодирования : UTC 2018-04-01 10: 29: 48
    Программа кодирования : mkvmerge v21.0.0 (\'Tardigrades Will Inherit The Earth\') 64-bit
    Библиотека кодирования : libebml v1.3.5 + libmatroska v1.4.8/Lavf57.71.100
    Видео
    Идентификатор : 1
    Формат : AVC
    Формат/Информация : Advanced Video Codec
    Профиль формата : Main@L4
    Настройки формата : CABAC/2 Ref Frames
    Параметр CABAC формата : Да
    Параметр RefFrames формата : 2 кадра
    Параметр GOP формата : M=1, N=25
    Идентификатор кодека : V_MPEG4/ISO/AVC
    Продолжительность : 1 ч. 31 м.
    Битрейт : 3908 Кбит/сек
    Ширина : 1510 пикселей
    Высота : 1080 пикселей
    Соотношение сторон : 1, 398
    Режим частоты кадров : Постоянный
    Частота кадров : 25, 000 кадров/сек
    Цветовое пространство : YUV
    Субдискретизация насыщенности : 4: 2: 0
    Битовая глубина : 8 бит
    Тип развёртки : Прогрессивная
    Бит/(Пиксели*Кадры) : 0.096
    Размер потока : 2, 50 Гбайт (95%)
    Default : Да
    Forced : Нет
    Аудио
    Идентификатор : 2
    Формат : AC-3
    Формат/Информация : Audio Coding 3
    Идентификатор кодека : A_AC3
    Продолжительность : 1 ч. 31 м.
    Вид битрейта : Постоянный
    Битрейт : 192 Кбит/сек
    Каналы : 2 канала
    Расположение каналов : Front: L R
    Частота : 48, 0 КГц
    Частота кадров : 31, 250 кадров/сек (1536 SPF)
    Битовая глубина : 16 бит
    Метод сжатия : С потерями
    Размер потока : 126 Мбайт (5%)
    ServiceKind/String : Complete Main
    Default : Да
    Forced : Нет

    Скриншоты для ознакомления



    Все одноименные релизы в Клубе
    Время раздачи: 24/7 (круглосуточно) (до появления первых 3-5 скачавших)


    Онлайн видео Не может быть! (1975) WEBRip [H.264



    Не может быть! (1975) WEBRip [H.264/1080p-LQ]
    Рейтинг →
     (голосов: 1, оценка 5/5, голосовать можно 1 раз )

    Другие торренты по теме:

  • Тень, или Может быть, все обойдется (2 серии из 2) (1991) SATRip скачать через торрент бесплатно
  • Не может быть! (1975) DVDRip [H.264] скачать через торрент бесплатно
  • Не может быть, Джоуз / No Way Jose (2015) WEB-DL [H.264 / 720p-LQ] скачать через торрент бесплатно
  • Не может быть, Джоуз / No Way Jose (2015) WEB-DLRip скачать через торрент бесплатно
  • Не может быть, Джоуз / No Way Jose (2015) WEB-DL [H.264 / 1080p-LQ] скачать через торрент бесплатно
  • Михаил Зощенко | Не может быть! (2012) [DJVU]
  • Михаил Зощенко | Не может быть! [Рассказы и пьесы] (2012) [FB2]
  • Богомил Райнов | Что может быть лучше плохой погоды (2014) [MP3]


    • Комментарии (0):

      Информация

      Информация

        Посетители, находящиеся в группе Гости, не могут оставлять комментарии в данной новости.

        ↓ Меню




        ↓ Опрос

        Вы добавили сайт в закладки?
        Да
        Нет


        Top 10 за месяц (Фильмы)