.
Авторизация | Регистрация
Хочешь лучшие торренты? Добавь свой email!
Добавить

Торрент скачать бесплатно

» » Гарри Поттер и философский камень / Harry Potter and the Sorcerers Stone (2001) UHD BDRemux [H.265 / 2160p] [4K, HDR, 10-bit] торрент скачать бесплатно


    Гарри Поттер и философский камень / Harry Potter and the Sorcerers Stone (2001) UHD BDRemux [H.265 / 2160p] [4K, HDR, 10-bit] торрент скачать бесплатно

    Опубликовал: Админ | Дата: 2-04-2018, 05:00 | .torrent скачали: 0

    Гарри Поттер и философский камень / Harry Potter and the Sorcerers Stone (2001) UHD BDRemux [H.265 / 2160p] [4K, HDR, 10-bit]Производство: Великобритания, США/Warner Bros. Pictures
    Жанр: фэнтези, приключения, семейный
    Режиссер: Крис Коламбус
    Продюсер: Дэвид Хейман, Тодд Арноу, Майкл Барнатан

    Актеры
    Дэниэл Рэдклифф, Руперт Гринт, Эмма Уотсон, Том Фелтон, Ричард Харрис, Мэгги Смит, Алан Рикман, Робби Колтрейн, Саундерс Триплетс, Фиона Шоу, Гарри Меллинг, Дэвид Брэдли (I), Ричард Гриффитс и др.

    Описание

    Жизнь десятилетнего Гарри Поттера нельзя назвать сладкой: его родители умерли, едва ему исполнился год, а от дяди и тётки, взявших сироту на воспитание, достаются лишь тычки да подзатыльники. Но в одиннадцатый день рождения Гарри всё меняется. Странный гость, неожиданно появившийся на пороге, приносит письмо, из которого мальчик узнаёт, что на самом деле он волшебник и принят в Хогвартс — школу магии. А уже через пару недель Гарри будет мчаться в поезде Хогвартс-экспресс навстречу новой жизни, где его ждут невероятные приключения, верные друзья и самое главное — ключ к разгадке тайны смерти его родителей.

    Возраст: 12+ (зрителям, достигшим 12 лет)
    Рейтинг MPAA: PG (рекомендуется присутствие родителей)

    Релиз от: ExKinoRay Ivantsov
    Продолжительность: 02: 32: 21
    Качество: UHD BDRemux (HDR)
    Перевод: Дублированный (Лицензия), Профессиональный (двухголосый) (П. Гланц и И. Королёва), Профессиональный (многоголосый) (С.Р.И), Авторский (С. Рябов)
    Субтитры: Русские (форс + полные), украинские (полные), английские (SDH)
    Видео: H.265/HEVC, 3840x2160p, (16: 9), 60.7 Mbps, 23.976 fps
    Аудио 1: AC3, 6 ch, 640 kbps - Русский, Дубляж
    Аудио 2: AC3, 6 ch, 448 kbps - Русский, П. Гланц и И. Королёва
    Аудио 3: AC3, 6 ch, 448 kbps - Русский, С.Р.И
    Аудио 4: AC3, 6 ch, 640 kbps - Русский, С. Рябов
    Аудио 5: AC3, 2 ch, 192 kbps - Украинский, 1+1
    Аудио 6: AC3, 2 ch, 192 kbps - Украинский, Новый канал
    Аудио 7: AC3, 6 ch, 640 kbps - Английский
    Аудио 8: DTS: X MA, 8 ch, 4342 kbps - Английский
    Аудио 9: AC3, 2 ch, 192 kbps - Английский, Audiodescription
    Аудио 10: DTS-HD MA, 6 ch, 2243 kbps - Немецкий
    Аудио 11: AC3, 6 ch, 448 kbps - Голландский
    Исходный диск на Blu-ray.com
    Просмотр 4K HDR-контента на ПК
    Общее
    Уникальный идентификатор : 106874913856336358919324155735730689845 (0x50675C14A45C5FE33747744D23DE1735)
    Полное имя : Harry.Potter.and.the.Sorcerers.Stone.2001.2160p.BluRay.REMUX.HEVC.DTS-X.7.1.IVA(RUS.UKR.ENG).mkv
    Формат : Matroska
    Версия формата : Version 4/Version 2
    Размер файла : 75, 7 Гбайт
    Продолжительность : 2 ч. 32 м.
    Общий поток : 71, 1 Мбит/сек
    Название фильма : Harry Potter and the Sorcerer\'s Stone (2001)
    Дата кодирования : UTC 2017-12-29 03: 42: 13
    Программа кодирования : mkvmerge v19.0.0 (\'Brave Captain\') 64-bit
    Библиотека кодирования : libebml v1.3.5 + libmatroska v1.4.8
    Обложка : Yes
    Видео
    Идентификатор : 1
    Формат : HEVC
    Формат/Информация : High Efficiency Video Coding
    Коммерческое название : HDR10
    Профиль формата : Main10@L5.1@High
    Идентификатор кодека : V_MPEGH/ISO/HEVC
    Продолжительность : 2 ч. 32 м.
    Битрейт : 60, 7 Мбит/сек
    Ширина : 3840 пикселей
    Высота : 2160 пикселей
    Соотношение сторон : 16: 9
    Режим частоты кадров : Постоянный
    Частота кадров : 23, 976 (24000/1001) кадра/сек
    Цветовое пространство : YUV
    Субдискретизация насыщенности : 4: 2: 0 (Type 2)
    Битовая глубина : 10 бит
    Бит/(Пиксели*Кадры) : 0.305
    Размер потока : 64, 6 Гбайт (85%)
    Библиотека кодирования : ATEME Titan File 3.8.3 (4.8.3.0)
    Default : Да
    Forced : Нет
    Цветовой диапазон : Limited
    Основные цвета : BT.2020
    Характеристики трансфера : PQ
    Коэффициенты матрицы : BT.2020 non-constant
    MasteringDisplay_Luminance : min: 0.0050 cd/m2, max: 4000 cd/m2
    MaxCLL : 552 cd/m2
    MaxFALL : 190 cd/m2
    Аудио #1
    Идентификатор : 2
    Формат : AC-3
    Формат/Информация : Audio Coding 3
    Идентификатор кодека : A_AC3
    Продолжительность : 2 ч. 32 м.
    Вид битрейта : Постоянный
    Битрейт : 640 Кбит/сек
    Каналы : 6 каналов
    Расположение каналов : Front: L C R, Side: L R, LFE
    Частота : 48, 0 КГц
    Частота кадров : 31, 250 кадров/сек (1536 SPF)
    Битовая глубина : 16 бит
    Метод сжатия : С потерями
    Размер потока : 697 Мбайт (1%)
    Заголовок : Профессиональный (полное дублирование)
    Язык : Russian
    ServiceKind/String : Complete Main
    Default : Да
    Forced : Нет
    Аудио #2
    Идентификатор : 3
    Формат : AC-3
    Формат/Информация : Audio Coding 3
    Идентификатор кодека : A_AC3
    Продолжительность : 2 ч. 29 м.
    Вид битрейта : Постоянный
    Битрейт : 448 Кбит/сек
    Каналы : 6 каналов
    Расположение каналов : Front: L C R, Side: L R, LFE
    Частота : 48, 0 КГц
    Частота кадров : 31, 250 кадров/сек (1536 SPF)
    Битовая глубина : 16 бит
    Метод сжатия : С потерями
    Размер потока : 480 Мбайт (1%)
    Заголовок : Профессиональный (двухголосый)(П. Гланц и И. Королёва)
    Язык : Russian
    ServiceKind/String : Complete Main
    Default : Нет
    Forced : Нет
    Аудио #3
    Идентификатор : 4
    Формат : AC-3
    Формат/Информация : Audio Coding 3
    Идентификатор кодека : A_AC3
    Продолжительность : 2 ч. 32 м.
    Вид битрейта : Постоянный
    Битрейт : 448 Кбит/сек
    Каналы : 6 каналов
    Расположение каналов : Front: L C R, Side: L R, LFE
    Частота : 48, 0 КГц
    Частота кадров : 31, 250 кадров/сек (1536 SPF)
    Битовая глубина : 16 бит
    Метод сжатия : С потерями
    Размер потока : 488 Мбайт (1%)
    Заголовок : Профессиональный (многоголосый, закадровый)(С.Р.И)
    Язык : Russian
    ServiceKind/String : Complete Main
    Default : Нет
    Forced : Нет
    Аудио #4
    Идентификатор : 5
    Формат : AC-3
    Формат/Информация : Audio Coding 3
    Идентификатор кодека : A_AC3
    Продолжительность : 2 ч. 32 м.
    Вид битрейта : Постоянный
    Битрейт : 640 Кбит/сек
    Каналы : 6 каналов
    Расположение каналов : Front: L C R, Side: L R, LFE
    Частота : 48, 0 КГц
    Частота кадров : 31, 250 кадров/сек (1536 SPF)
    Битовая глубина : 16 бит
    Метод сжатия : С потерями
    Размер потока : 697 Мбайт (1%)
    Заголовок : Авторский (одноголосый)(С. Рябов)
    Язык : Russian
    ServiceKind/String : Complete Main
    Default : Нет
    Forced : Нет
    Аудио #5
    Идентификатор : 6
    Формат : AC-3
    Формат/Информация : Audio Coding 3
    Идентификатор кодека : A_AC3
    Продолжительность : 2 ч. 32 м.
    Вид битрейта : Постоянный
    Битрейт : 192 Кбит/сек
    Каналы : 2 канала
    Расположение каналов : Front: L R
    Частота : 48, 0 КГц
    Частота кадров : 31, 250 кадров/сек (1536 SPF)
    Битовая глубина : 16 бит
    Метод сжатия : С потерями
    Размер потока : 209 Мбайт (0%)
    Заголовок : Профессиональный (многоголосый, закадровый)(1+1)
    Язык : Ukrainian
    ServiceKind/String : Complete Main
    Default : Нет
    Forced : Нет
    Аудио #6
    Идентификатор : 7
    Формат : AC-3
    Формат/Информация : Audio Coding 3
    Идентификатор кодека : A_AC3
    Продолжительность : 2 ч. 32 м.
    Вид битрейта : Постоянный
    Битрейт : 192 Кбит/сек
    Каналы : 2 канала
    Расположение каналов : Front: L R
    Частота : 48, 0 КГц
    Частота кадров : 31, 250 кадров/сек (1536 SPF)
    Битовая глубина : 16 бит
    Метод сжатия : С потерями
    Размер потока : 209 Мбайт (0%)
    Заголовок : Профессиональный (многоголосый, закадровый)( Новый канал)
    Язык : Ukrainian
    ServiceKind/String : Complete Main
    Default : Нет
    Forced : Нет
    Аудио #7
    Идентификатор : 8
    Формат : AC-3
    Формат/Информация : Audio Coding 3
    Идентификатор кодека : A_AC3
    Продолжительность : 2 ч. 32 м.
    Вид битрейта : Постоянный
    Битрейт : 640 Кбит/сек
    Каналы : 6 каналов
    Расположение каналов : Front: L C R, Side: L R, LFE
    Частота : 48, 0 КГц
    Частота кадров : 31, 250 кадров/сек (1536 SPF)
    Битовая глубина : 16 бит
    Метод сжатия : С потерями
    Размер потока : 697 Мбайт (1%)
    Заголовок : Оригинал
    Язык : English
    ServiceKind/String : Complete Main
    Default : Нет
    Forced : Нет
    Аудио #8
    Идентификатор : 9
    Формат : DTS
    Формат/Информация : Digital Theater Systems
    Профиль формата : X/MA/Core
    Идентификатор кодека : A_DTS
    Продолжительность : 2 ч. 32 м.
    Вид битрейта : Переменный/Переменный/Постоянный
    Битрейт : 4342 Кбит/сек/4342 Кбит/сек/1509 Кбит/сек
    Каналы : Object Based/8 каналов/6 каналов
    Расположение каналов : Object Based/Front: L C R, Side: L R, Back: L R, LFE/Front: L C R, Side: L R, LFE
    Частота : /48, 0 КГц/48, 0 КГц
    Частота кадров : 93, 750 кадра/сек (512 SPF)
    Битовая глубина : /24 бит/24 бит
    Метод сжатия : /Lossless/Lossy
    Размер потока : 4, 62 Гбайт (6%)
    Заголовок : DTS-HD MA Оригинал
    Язык : English
    Default : Нет
    Forced : Нет
    Аудио #9
    Идентификатор : 10
    Формат : AC-3
    Формат/Информация : Audio Coding 3
    Идентификатор кодека : A_AC3
    Продолжительность : 2 ч. 32 м.
    Вид битрейта : Постоянный
    Битрейт : 192 Кбит/сек
    Каналы : 2 канала
    Расположение каналов : Front: L R
    Частота : 48, 0 КГц
    Частота кадров : 31, 250 кадров/сек (1536 SPF)
    Битовая глубина : 16 бит
    Метод сжатия : С потерями
    Размер потока : 209 Мбайт (0%)
    Заголовок : ENG Audiodescription
    Язык : English
    ServiceKind/String : Complete Main
    Default : Нет
    Forced : Нет
    Аудио #10
    Идентификатор : 11
    Формат : DTS
    Формат/Информация : Digital Theater Systems
    Профиль формата : MA/Core
    Идентификатор кодека : A_DTS
    Продолжительность : 2 ч. 32 м.
    Вид битрейта : Переменный/Постоянный
    Битрейт : 2243 Кбит/сек/1509 Кбит/сек
    Каналы : 6 каналов
    Расположение каналов : Front: L C R, Side: L R, LFE
    Частота : 48, 0 КГц
    Частота кадров : 93, 750 кадра/сек (512 SPF)
    Битовая глубина : 16 бит
    Метод сжатия : Без потерь/Lossy
    Размер потока : 2, 39 Гбайт (3%)
    Заголовок : Harry.Potter.and.the.Sorcerers.Stone.2001.2160p.BluRay.REMUX.HEVC.DTS-X.7.1-FGT
    Язык : German
    Default : Нет
    Forced : Нет
    Аудио #11
    Идентификатор : 12
    Формат : AC-3
    Формат/Информация : Audio Coding 3
    Идентификатор кодека : A_AC3
    Продолжительность : 2 ч. 32 м.
    Вид битрейта : Постоянный
    Битрейт : 448 Кбит/сек
    Каналы : 6 каналов
    Расположение каналов : Front: L C R, Side: L R, LFE
    Частота : 48, 0 КГц
    Частота кадров : 31, 250 кадров/сек (1536 SPF)
    Битовая глубина : 16 бит
    Метод сжатия : С потерями
    Размер потока : 488 Мбайт (1%)
    Заголовок : Harry.Potter.and.the.Sorcerers.Stone.2001.2160p.BluRay.REMUX.HEVC.DTS-X.7.1-FGT
    Язык : Dutch
    ServiceKind/String : Complete Main
    Default : Нет
    Forced : Нет
    Текст #1
    Идентификатор : 13
    Формат : UTF-8
    Идентификатор кодека : S_TEXT/UTF8
    Идентификатор кодека/Информация : UTF-8 Plain Text
    Продолжительность : 1 ч. 16 м.
    Битрейт : 0 бит/сек
    ElementCount : 10
    Размер потока : 323 байт (0%)
    Заголовок : RUS Forced
    Язык : Russian
    Default : Да
    Forced : Да
    Текст #2
    Идентификатор : 14
    Формат : UTF-8
    Идентификатор кодека : S_TEXT/UTF8
    Идентификатор кодека/Информация : UTF-8 Plain Text
    Продолжительность : 2 ч. 32 м.
    Битрейт : 70 бит/сек
    ElementCount : 1252
    Размер потока : 78, 3 Кбайт (0%)
    Заголовок : RUS Full
    Язык : Russian
    Default : Нет
    Forced : Нет
    Текст #3
    Идентификатор : 15
    Формат : UTF-8
    Идентификатор кодека : S_TEXT/UTF8
    Идентификатор кодека/Информация : UTF-8 Plain Text
    Продолжительность : 2 ч. 23 м.
    Битрейт : 71 бит/сек
    ElementCount : 1250
    Размер потока : 75, 4 Кбайт (0%)
    Заголовок : UKR Full
    Язык : Ukrainian
    Default : Нет
    Forced : Нет
    Текст #4
    Идентификатор : 16
    Формат : UTF-8
    Идентификатор кодека : S_TEXT/UTF8
    Идентификатор кодека/Информация : UTF-8 Plain Text
    Продолжительность : 2 ч. 31 м.
    Битрейт : 42 бит/сек
    ElementCount : 1304
    Размер потока : 47, 2 Кбайт (0%)
    Заголовок : ENG SDH
    Язык : English
    Default : Нет
    Forced : Нет
    Меню
    00: 00: 00.000 : en: Chapter 1
    00: 04: 05.411 : en: Chapter 2
    00: 08: 11.157 : en: Chapter 3
    00: 12: 17.403 : en: Chapter 4
    00: 18: 25.270 : en: Chapter 5
    00: 21: 43.635 : en: Chapter 6
    00: 24: 41.646 : en: Chapter 7
    00: 28: 49.561 : en: Chapter 8
    00: 31: 05.196 : en: Chapter 9
    00: 34: 05.543 : en: Chapter 10
    00: 37: 49.600 : en: Chapter 11
    00: 41: 29.487 : en: Chapter 12
    00: 46: 13.437 : en: Chapter 13
    00: 50: 29.026 : en: Chapter 14
    00: 55: 04.301 : en: Chapter 15
    01: 00: 55.652 : en: Chapter 16
    01: 03: 43.986 : en: Chapter 17
    01: 07: 48.230 : en: Chapter 18
    01: 13: 49.258 : en: Chapter 19
    01: 20: 17.979 : en: Chapter 20
    01: 23: 54.529 : en: Chapter 21
    01: 28: 32.473 : en: Chapter 22
    01: 31: 42.497 : en: Chapter 23
    01: 36: 42.630 : en: Chapter 24
    01: 42: 34.815 : en: Chapter 25
    01: 49: 05.038 : en: Chapter 26
    01: 53: 21.628 : en: Chapter 27
    01: 58: 09.749 : en: Chapter 28
    02: 03: 44.750 : en: Chapter 29
    02: 06: 56.108 : en: Chapter 30
    02: 10: 55.347 : en: Chapter 31
    02: 14: 18.884 : en: Chapter 32
    02: 17: 29.574 : en: Chapter 33
    02: 21: 44.662 : en: Chapter 34
    02: 24: 10.808 : en: Chapter 35
    YouTube

    Скриншоты для ознакомления


    Релизы фильма Гарри Поттер и философский камень/Harry Potter and the Sorcerer\'s Stone на NNM Club
    Время раздачи: с 9: 00 до 23: 00


    Онлайн видео Гарри Поттер и философский камень



    Гарри Поттер и философский камень/Harry Potter and the Sorcerers Stone (2001) UHD BDRemux [H.265/2160p] [4K, HDR, 10-bit]
    Рейтинг →
     (голосов: 1, оценка 5/5, голосовать можно 1 раз )

    Другие торренты по теме:

  • Гарри Поттер и Кубок огня / Harry Potter and the Goblet of Fire (2005) HDRip [H.264] [Ultimate Cut]
  • Гарри Поттер и Орден Феникса / Harry Potter and the Order of the Phoenix (2007) HDRip [H.264] [Ultimate Cut]
  • Джоан Роулинг | Гарри Поттер и Кубок огня [2008] [M4B | AAC] скачать через торрент бесплатно
  • Джоан Роулинг | Гарри Поттер и Дары Смерти [2011] [M4B | AAC] скачать через торрент бесплатно
  • Джоан Роулинг | Гарри Поттер и Принц-полукровка [2011] [M4B | AAC] скачать через торрент бесплатно
  • Джоан Роулинг | Гарри Поттер и Орден Феникса [2008] [M4B | AAC] скачать через торрент бесплатно
  • Джоан Роулинг | Гарри Поттер и узник Азкабана [2006] [M4B | AAC] скачать через торрент бесплатно
  • Джоан Роулинг | Гарри Поттер и Тайная комната [2006] [M4B | AAC] скачать через торрент бесплатно


    • Комментарии (0):

      Информация

      Информация

        Посетители, находящиеся в группе Гости, не могут оставлять комментарии в данной новости.

        ↓ Меню




        ↓ Опрос

        Вы добавили сайт в закладки?
        Да
        Нет


        Top 10 за месяц (Фильмы)