.
Авторизация | Регистрация
Хочешь лучшие торренты? Добавь свой email!
Добавить

Торрент скачать бесплатно

» » Целитель / Iscelitel (2017) HDTVRip [MVO] [AD] торрент скачать бесплатно


    Целитель / Iscelitel (2017) HDTVRip [MVO] [AD] торрент скачать бесплатно

    Опубликовал: Админ | Дата: 2-04-2018, 05:00 | .torrent скачали: 0

    Целитель / Iscelitel (2017) HDTVRip [MVO] [AD]Производство: Македония/Fragment Film, Graal Films
    Жанр: Драма, комедия
    Режиссер: Горче Ставрески

    Актеры
    Благой Веселинов, Атанас Таневски, Аксель Мехмет, Александр Микич, Мирослав Петкович, Диме Илиев, Симона Димковска, Игорь Ангелов, Мони Дамевски, Катарина Илиевска

    Описание

    Мать и брат Веле шесть лет назад погибли в аварии. Он живет вместе с умирающим от рака отцом, работает в депо, где задерживают зарплату. Веле в отчаянии, нет денег отцу на лекарства. Тлен и безысходность. Как-то в депо приходит полиция: поступил сигнал, что в одном из вагонов спрятана контрабанда. Рабочих просят осмотреть состав, полиции сообщают, что ничего не найдено. У Веле забрезжила надежда на чудо.

    Дата мировой премьеры: 9 ноября 2017
    Продолжительность: 01: 40: 04
    Качество видео: HDTVRip
    Перевод: Многоголосый закадровый, любительский (Синема УС)
    Субтитры: Отсутствуют
    Реклама: Присутствуют вставки текстовой рекламы
    Видео: XviD, 720x400, ~1464 Kbps
    Аудио: AC-3, 2 ch, 384 Kbps

    Общее
    Полное имя : E: NNMЦелительSecret Ingredient 2017 HDTVRip.avi
    Формат : AVI
    Формат/Информация : Audio Video Interleave
    Профиль формата : OpenDML
    Размер файла : 1, 30 Гбайт
    Продолжительность : 1 ч. 40 м.
    Общий поток : 1861 Кбит/сек
    Видео
    Идентификатор : 0
    Формат : MPEG-4 Visual
    Профиль формата : Advanced Simple@L5
    Настройки формата : BVOP2
    Параметр BVOP формата : 2
    Параметр QPel формата : Нет
    Параметр GMC формата : Без точки перехода
    Параметр матрицы формата : Default (MPEG)
    Идентификатор кодека : XVID
    Идентификатор кодека/Подсказка : XviD
    Продолжительность : 1 ч. 40 м.
    Битрейт : 1464 Кбит/сек
    Ширина : 720 пикселей
    Высота : 400 пикселей
    Соотношение сторон : 16: 9
    Частота кадров : 23, 976 (24000/1001) кадра/сек
    Цветовое пространство : YUV
    Субдискретизация насыщенности : 4: 2: 0
    Битовая глубина : 8 бит
    Тип развёртки : Прогрессивная
    Метод сжатия : С потерями
    Бит/(Пиксели*Кадры) : 0.212
    Размер потока : 1, 02 Гбайт (79%)
    Библиотека кодирования : XviD 1.2.1 (UTC 2008-12-04)
    Аудио
    Идентификатор : 1
    Формат : AC-3
    Формат/Информация : Audio Coding 3
    Идентификатор кодека : 2000
    Продолжительность : 1 ч. 40 м.
    Вид битрейта : Постоянный
    Битрейт : 384 Кбит/сек
    Каналы : 2 канала
    Расположение каналов : Front: L R
    Частота : 48, 0 КГц
    Частота кадров : 31, 250 кадров/сек (1536 SPF)
    Битовая глубина : 16 бит
    Метод сжатия : С потерями
    Размер потока : 275 Мбайт (21%)
    Выравнивание : Соединение по промежуткам
    Продолжительность промежутка : 32 мс. (0, 77 видеокадр)
    ServiceKind/String : Complete Main

    Скриншоты для ознакомления



    Все одноименные релизы в Клубе Время раздачи: 24/7 (до появления первых 3-5 скачавших)


    Онлайн видео Целитель



    Целитель/Iscelitel (2017) HDTVRip [MVO] [AD]
    Рейтинг →
     (голосов: 1, оценка 3/5, голосовать можно 1 раз )

    Другие торренты по теме:

  • Целитель Лука (2015) HDTVRip [720p-LQ] скачать через торрент бесплатно
  • Книжная серия | Карманный целитель [32 книги] (2011-2015) [FB2] скачать через торрент бесплатно
  • Хозе Сильва, Роберт Стоун | Ты целитель (2014) [MP3]
  • Иван Неумывакин | Чайный гриб - природный целитель. Мифы и реальность (2007) [FB2]
  • Юрий Константинов | Мед. Природный целитель (2016) [FB2]
  • Ольга Шувалова | Чудо-целитель свекла (2010) [MP3]
  • Ольга Шувалова | Целитель лук (2011) [MP3]
  • Антти Туомайнен | Целитель (2017) [MP3]


    • Комментарии (0):

      Информация

      Информация

        Посетители, находящиеся в группе Гости, не могут оставлять комментарии в данной новости.

        ↓ Меню




        ↓ Опрос

        Вы добавили сайт в закладки?
        Да
        Нет


        Top 10 за месяц (Фильмы)