.
Авторизация | Регистрация
Хочешь лучшие торренты? Добавь свой email!
Добавить

Торрент скачать бесплатно

» » Кармилла / The Carmilla Movie (2017) WEB-DLRip [H.264 / 720p-LQ] [MVO] [AD] торрент скачать бесплатно


    Кармилла / The Carmilla Movie (2017) WEB-DLRip [H.264 / 720p-LQ] [MVO] [AD] торрент скачать бесплатно

    Опубликовал: Админ | Дата: 2-04-2018, 05:00 | .torrent скачали: 0

    Кармилла / The Carmilla Movie (2017) WEB-DLRip [H.264 / 720p-LQ] [MVO] [AD]Производство: Канада/Shaftesbury Films
    Жанр: Комедия, ужасы, мелодрама, экранизация
    Режиссер: Спенсер Мэйби

    Актеры
    Элиз Бауман, Наташа Негованлис, Энни Бриггс, Кейтлин Александр, Николь Стэмп, Доминик Провост-Чалкли, Грэйс Линн Кунг, Кара Ги, Софи Уолкер

    Описание

    Судьба женщины-вампира Кармиллы складывается так, что ей дается шанс стать вновь простым смертным человеком. Вместе со своей подругой они снимают квартиру неподалеку от Торонто и пытаются жить, как и все люди вокруг. Однако вампирские наклонности все еще не покинули нашу героиню и чем дальше, тем ей становится труднее совладать с собой. Обратившись за помощью к своим старым друзьям из университета, девушки пытаются найти способы избавиться от проклятия. Идя по следу разгадок, подруги приходят в очень старинный замок, где они найдут то, что искали. Их ждет невероятное приключение, полное загадок и опасностей.
    Экранизация культового романа ирландца Джозефа Шеридана Ле Фаню.

    Дата мировой премьеры: 26 октября 2017
    Продолжительность: 01: 34: 07
    Качество видео: WEB-DLRip
    Перевод: Многоголосый закадровый, любительский (Синема УС)
    Субтитры: Отсутствуют
    Реклама: Присутствуют вставки текстовой рекламы
    Видео: H.264/AVC, 1280x534, ~4395 Kbps
    Аудио: AC-3, 48.0 KHz, 2 ch, 384 Kbps

    Общее
    Полное имя : E: NNMКармиллаThe Carmilla Movie 2017 WEB-DLRip 720p-LQ.mkv
    Формат : Matroska
    Версия формата : Version 2
    Размер файла : 3, 21 Гбайт
    Продолжительность : 1 ч. 34 м.
    Режим общего битрейта : Переменный
    Общий поток : 4876 Кбит/сек
    Программа кодирования : libmatroska 1.4.1
    Видео
    Идентификатор : 1
    Формат : AVC
    Формат/Информация : Advanced Video Codec
    Профиль формата : High@L4.1
    Настройки формата : CABAC/4 Ref Frames
    Параметр CABAC формата : Да
    Параметр RefFrames формата : 4 кадра
    Идентификатор кодека : V_MPEG4/ISO/AVC
    Продолжительность : 1 ч. 34 м.
    Вид битрейта : Переменный
    Битрейт : 4395 Кбит/сек
    Максимальный битрейт : 5000 Кбит/сек
    Ширина : 1280 пикселей
    Высота : 534 пикселя
    Соотношение сторон : 2, 40: 1
    Режим частоты кадров : Постоянный
    Частота кадров : 23, 976 (24000/1001) кадра/сек
    Стандарт вещания : Component
    Цветовое пространство : YUV
    Субдискретизация насыщенности : 4: 2: 0
    Битовая глубина : 8 бит
    Тип развёртки : Прогрессивная
    Бит/(Пиксели*Кадры) : 0.268
    Размер потока : 2, 89 Гбайт (90%)
    Default : Нет
    Forced : Нет
    Цветовой диапазон : Limited
    Основные цвета : BT.709
    Характеристики трансфера : BT.709
    Коэффициенты матрицы : BT.709
    Аудио
    Идентификатор : 2
    Формат : AC-3
    Формат/Информация : Audio Coding 3
    Идентификатор кодека : A_AC3
    Продолжительность : 1 ч. 34 м.
    Вид битрейта : Постоянный
    Битрейт : 384 Кбит/сек
    Каналы : 2 канала
    Расположение каналов : Front: L R
    Частота : 48, 0 КГц
    Частота кадров : 31, 250 кадров/сек (1536 SPF)
    Битовая глубина : 16 бит
    Метод сжатия : С потерями
    Размер потока : 259 Мбайт (8%)
    ServiceKind/String : Complete Main
    Default : Нет
    Forced : Нет

    Скриншоты для ознакомления



    Все одноименные релизы в Клубе Время раздачи: 24/7 (до появления первых 3-5 скачавших)


    Онлайн видео Кармилла



    Кармилла/The Carmilla Movie (2017) WEB-DLRip [H.264/720p-LQ] [MVO] [AD]
    Рейтинг →
     (голосов: 1, оценка 4/5, голосовать можно 1 раз )

    Другие торренты по теме:



      Комментарии (0):

      Информация

      Информация

        Посетители, находящиеся в группе Гости, не могут оставлять комментарии в данной новости.

        ↓ Меню




        ↓ Опрос

        Вы добавили сайт в закладки?
        Да
        Нет


        Top 10 за месяц (Фильмы)