.
Авторизация | Регистрация
Хочешь лучшие торренты? Добавь свой email!
Добавить

Торрент скачать бесплатно

  • support: webmaster@btracker.org
» » Звёздные войны: Последние джедаи / Star Wars: Episode VIII - The Last Jedi (2017) UHD BDRemux [H.265 / 2160p] [4K, HDR, 10-bit] торрент скачать бесплатно


    Звёздные войны: Последние джедаи / Star Wars: Episode VIII - The Last Jedi (2017) UHD BDRemux [H.265 / 2160p] [4K, HDR, 10-bit] торрент скачать бесплатно

    Опубликовал: Админ | Дата: 2-04-2018, 05:00 | .torrent скачали: 0

    Звёздные войны: Последние джедаи / Star Wars: Episode VIII - The Last Jedi (2017) UHD BDRemux [H.265 / 2160p] [4K, HDR, 10-bit]Производство: США/Walt Disney Pictures
    Жанр: фантастика, фэнтези, боевик, приключения
    Режиссер: Райан Джонсон
    Продюсер: Джей Джей Абрамс, Пиппа Андерсон, Рэм Бергман

    Актеры
    Джон Бойега, Дэйзи Ридли, Кэрри Фишер, Оскар Айзек, Адам Драйвер, Донал Глисон, Марк Хэмилл, Макс фон Сюдов, Энди Серкис, Лупита Нионго, Энтони Дэниелс и др.

    Описание

    Новая история о противостоянии света и тьмы, добра и зла начинается после гибели Хана Соло. В Галактике, где Первый Орден и Сопротивление яростно сражаются друг с другом в войне, героиня Рей пробудила в себе Силу. Но что произойдет, когда она встретится с единственным оставшимся в живых рыцарем-джедаем — Люком Скайуокером?
    Кайло Рен перешел на Темную сторону Силы и убил собственного отца, заняв высокую позицию в Первом Ордене. Но куда приведут его неуемные амбиции, подаренные по наследству грозным дедом Дартом Вейдером? Ситуация обострится еще больше, когда мать Кайло, лидер Сопротивления Лея, вместе с По, Финном и BB-8 приступит к новой миссии.

    Возраст: 16+ (зрителям, достигшим 16 лет)
    Рейтинг MPAA: PG-13 (детям до 13 лет просмотр нежелателен)
    Дата мировой премьеры: 9 декабря 2017
    Премьера (РФ): 14 декабря 2017, WDSSPR 3D
    Релиз на Blu-ray/DVD: 3 апреля 2018, Уолт Дисней Компани СНГ

    Релиз от: ExKinoRay селезень
    Продолжительность: 02: 31: 51
    Качество: UHD BDRemux (HDR)
    Перевод: Дублированный (iTunes), Авторский (Живов)
    Субтитры: Русские (forced, full, SDH), английские
    Видео: H.265/HEVC, 3840x2160, (16: 9), 45.9 Mbps, 23.976 fps
    Аудио 1: AC3, 6 ch, 384 kbps - Русский, Дубляж
    Аудио 2: DTS-HD MA, 8 ch, 4642 kbps - Русский, Живов
    Аудио 3: TrueHD-Atmos, 8 ch, 3941 kbps - Английский
    Аудио 4: AC3, 6 ch, 640 kbps - Английский
    Исходный диск на Blu-ray.com
    Просмотр 4K HDR-контента на ПК
    General
    Unique ID : 287734551117700473948459269350795154982 (0xD877A8A75441EE8E41BFAD50C64E9626)
    Complete name : C: Video111Star.Wars.The.Last.Jedi.2017.D.AVO.BDREMUX.2160p.4K.UltraHD.HEVC.HDR.ExKinoRay.mkv
    Format : Matroska
    Format version : Version 4/Version 2
    File size : 59.0 GiB
    Duration : 2 h 32 min
    Overall bit rate mode : Variable
    Overall bit rate : 55.5 Mb/s
    Movie name : Star Wars The Last Jedi 2017 from ExKinoRay
    Encoded date : UTC 2018-03-25 04: 38: 24
    Writing application : mkvmerge v21.0.0 (\'Tardigrades Will Inherit The Earth\') 64-bit
    Writing library : libebml v1.3.5 + libmatroska v1.4.8
    Video
    ID : 1
    Format : HEVC
    Format/Info : High Efficiency Video Coding
    Format profile : Main10@L5.1@High
    Codec ID : V_MPEGH/ISO/HEVC
    Duration : 2 h 31 min
    Bit rate : 45.9 Mb/s
    Width : 3 840 pixels
    Height : 2 160 pixels
    Display aspect ratio : 16: 9
    Frame rate mode : Constant
    Frame rate : 23.976 (23976/1000) FPS
    Original frame rate : 23.976 (24000/1001) FPS
    Color space : YUV
    Chroma subsampling : 4: 2: 0 (Type 2)
    Bit depth : 10 bits
    Bits/(Pixel*Frame) : 0.231
    Stream size : 48.7 GiB (83%)
    Language : English
    Default : Yes
    Forced : No
    Color range : Limited
    Color primaries : BT.2020
    Transfer characteristics : PQ
    Matrix coefficients : BT.2020 non-constant
    Mastering display color pri : Display P3
    Mastering display luminance : min: 0.0020 cd/m2, max: 1000 cd/m2
    Audio #1
    ID : 2
    Format : AC-3
    Format/Info : Audio Coding 3
    Codec ID : A_AC3
    Duration : 2 h 32 min
    Bit rate mode : Constant
    Bit rate : 384 kb/s
    Channel(s) : 6 channels
    Channel positions : Front: L C R, Side: L R, LFE
    Sampling rate : 48.0 kHz
    Frame rate : 31.250 FPS (1536 SPF)
    Bit depth : 16 bits
    Compression mode : Lossy
    Stream size : 418 MiB (1%)
    Title : iTunes
    Language : Russian
    Service kind : Complete Main
    Default : Yes
    Forced : Yes
    Audio #2
    ID : 3
    Format : DTS
    Format/Info : Digital Theater Systems
    Format profile : MA/Core
    Codec ID : A_DTS
    Duration : 2 h 31 min
    Bit rate mode : Variable/Constant
    Bit rate : 4 642 kb/s/1 509 kb/s
    Channel(s) : 8 channels/6 channels
    Channel positions : Front: L C R, Side: L R, Back: L R, LFE/Front: L C R, Side: L R, LFE
    Sampling rate : 48.0 kHz
    Frame rate : 93.750 FPS (512 SPF)
    Bit depth : 24 bits
    Compression mode : Lossless/Lossy
    Stream size : 4.92 GiB (8%)
    Title : AVO Живов
    Language : Russian
    Default : No
    Forced : No
    Audio #3
    ID : 4
    Format : TrueHD
    Format profile : TrueHD+Atmos/TrueHD
    Codec ID : A_TRUEHD
    Duration : 2 h 31 min
    Bit rate mode : Variable
    Bit rate : 3 941 kb/s
    Maximum bit rate : 5 853 kb/s
    Channel(s) : Object Based/8 channels
    Channel positions : Object Based/Front: L C R, Side: L R, Back: L R, LFE
    Sampling rate : /48.0 kHz
    Frame rate : 1 200.000 FPS (40 SPF)
    Compression mode : Lossless
    Delay relative to video : 32 ms
    Stream size : 4.18 GiB (7%)
    Title : Original
    Language : English
    Default : No
    Forced : No
    Audio #4
    ID : 5
    Format : AC-3
    Format/Info : Audio Coding 3
    Codec ID : A_AC3
    Duration : 2 h 31 min
    Bit rate mode : Constant
    Bit rate : 640 kb/s
    Channel(s) : 6 channels
    Channel positions : Front: L C R, Side: L R, LFE
    Sampling rate : 48.0 kHz
    Frame rate : 31.250 FPS (1536 SPF)
    Bit depth : 16 bits
    Compression mode : Lossy
    Delay relative to video : 31 ms
    Stream size : 695 MiB (1%)
    Language : English
    Service kind : Complete Main
    Default : No
    Forced : No
    Text #1
    ID : 6
    Format : UTF-8
    Codec ID : S_TEXT/UTF8
    Codec ID/Info : UTF-8 Plain Text
    Duration : 2 h 22 min
    Bit rate : 1 b/s
    Count of elements : 16
    Stream size : 1.05 KiB (0%)
    Title : Forced
    Language : Russian
    Default : Yes
    Forced : Yes
    Text #2
    ID : 7
    Format : UTF-8
    Codec ID : S_TEXT/UTF8
    Codec ID/Info : UTF-8 Plain Text
    Duration : 2 h 20 min
    Bit rate : 64 b/s
    Count of elements : 1580
    Stream size : 66.9 KiB (0%)
    Title : Full iTunes
    Language : Russian
    Default : No
    Forced : No
    Text #3
    ID : 8
    Format : UTF-8
    Codec ID : S_TEXT/UTF8
    Codec ID/Info : UTF-8 Plain Text
    Duration : 2 h 23 min
    Bit rate : 73 b/s
    Count of elements : 1980
    Stream size : 77.4 KiB (0%)
    Title : SDH iTunes
    Language : Russian
    Default : No
    Forced : No
    Text #4
    ID : 9
    Format : UTF-8
    Codec ID : S_TEXT/UTF8
    Codec ID/Info : UTF-8 Plain Text
    Duration : 2 h 20 min
    Bit rate : 39 b/s
    Count of elements : 1569
    Stream size : 40.4 KiB (0%)
    Title : Full
    Language : English
    Default : No
    Forced : No
    Text #5
    ID : 10
    Format : UTF-8
    Codec ID : S_TEXT/UTF8
    Codec ID/Info : UTF-8 Plain Text
    Duration : 2 h 23 min
    Bit rate : 45 b/s
    Count of elements : 1897
    Stream size : 47.9 KiB (0%)
    Title : SDH
    Language : English
    Default : No
    Forced : No
    Text #6
    ID : 11
    Format : UTF-8
    Codec ID : S_TEXT/UTF8
    Codec ID/Info : UTF-8 Plain Text
    Duration : 2 h 23 min
    Bit rate : 64 b/s
    Count of elements : 1898
    Stream size : 68.3 KiB (0%)
    Title : SDH Colored
    Language : English
    Default : No
    Forced : No
    Menu
    00: 00: 00.000 : en: 00: 00: 00.000
    00: 00: 18.644 : en: 00: 00: 18.644
    00: 01: 45.731 : en: 00: 01: 45.731
    00: 03: 11.817 : en: 00: 03: 11.817
    00: 07: 43.296 : en: 00: 07: 43.296
    00: 12: 48.434 : en: 00: 12: 48.434
    00: 13: 44.574 : en: 00: 13: 44.574
    00: 16: 29.280 : en: 00: 16: 29.280
    00: 19: 59.281 : en: 00: 19: 59.281
    00: 22: 51.370 : en: 00: 22: 51.370
    00: 26: 04.980 : en: 00: 26: 04.980
    00: 27: 22.850 : en: 00: 27: 22.850
    00: 31: 24.758 : en: 00: 31: 24.758
    00: 32: 54.681 : en: 00: 32: 54.681
    00: 35: 27.667 : en: 00: 35: 27.667
    00: 38: 11.498 : en: 00: 38: 11.498
    00: 41: 53.428 : en: 00: 41: 53.428
    00: 44: 29.542 : en: 00: 44: 29.542
    00: 46: 51.475 : en: 00: 46: 51.475
    00: 51: 41.932 : en: 00: 51: 41.932
    00: 53: 50.060 : en: 00: 53: 50.060
    00: 55: 41.505 : en: 00: 55: 41.505
    00: 57: 39.581 : en: 00: 57: 39.581
    00: 59: 16.636 : en: 00: 59: 16.636
    01: 02: 05.847 : en: 01: 02: 05.847
    01: 03: 07.701 : en: 01: 03: 07.701
    01: 05: 41.729 : en: 01: 05: 41.729
    01: 07: 03.478 : en: 01: 07: 03.478
    01: 10: 25.721 : en: 01: 10: 25.721
    01: 13: 30.323 : en: 01: 13: 30.323
    01: 17: 43.450 : en: 01: 17: 43.450
    01: 20: 53.057 : en: 01: 20: 53.057
    01: 24: 17.970 : en: 01: 24: 17.970
    01: 26: 23.220 : en: 01: 26: 23.220
    01: 27: 59.524 : en: 01: 27: 59.524
    01: 30: 49.361 : en: 01: 30: 49.361
    01: 32: 54.569 : en: 01: 32: 54.569
    01: 35: 53.706 : en: 01: 35: 53.706
    01: 37: 10.616 : en: 01: 37: 10.616
    01: 39: 12.864 : en: 01: 39: 12.864
    01: 42: 07.663 : en: 01: 42: 07.663
    01: 45: 03.714 : en: 01: 45: 03.714
    01: 49: 35.694 : en: 01: 49: 35.694
    01: 52: 20.609 : en: 01: 52: 20.609
    01: 56: 04.749 : en: 01: 56: 04.749
    01: 58: 52.083 : en: 01: 58: 52.083
    02: 03: 11.134 : en: 02: 03: 11.134
    02: 06: 39.759 : en: 02: 06: 39.759
    02: 11: 43.604 : en: 02: 11: 43.604
    02: 15: 12.104 : en: 02: 15: 12.104
    02: 20: 16.700 : en: 02: 20: 16.700
    02: 23: 39.694 : en: 02: 23: 39.694
    YouTube

    Скриншоты для ознакомления


    Релизы фильма Звёздные войны: Последние джедаи/Star Wars: Episode VIII - The Last Jedi на NNM Club
    Время раздачи: с 9: 00 до 23: 00


    Онлайн видео Звёздные войны: Последние джедаи



    Звёздные войны: Последние джедаи/Star Wars: Episode VIII - The Last Jedi (2017) UHD BDRemux [H.265/2160p] [4K, HDR, 10-bit]
    Рейтинг →
     (голосов: 1, оценка 3/5, голосовать можно 1 раз )

    Другие торренты по теме:

  • Звёздные войны. Эпизод 5: Империя наносит ответный удар / Star Wars: Episode V - The Empire Strikes Back / Despecialized Edition Theatrical reconstruction HD (1980) BDRip скачать через торрент бесплатно
  • Звёздные войны: Повстанцы / Star Wars: Rebels (2014) WEB-DLRip (Сезон 1, Серий 3 из 16) (LostFilm)
  • Финес и Ферб. Звёздные войны / Phineas and Ferb: Star Wars (2014) WEB-DLRip (ЛанселаП) скачать через торрент бесплатно
  • Звёздные войны: Повстанцы / Star Wars: Rebels (2014) WEB-DLRip [1080p] (Сезон 1, серий 8 из 16) (LostFilm) скачать через торрент бесплатно
  • Звёздные войны: Повстанцы / Star Wars: Rebels (2014) WEB-DLRip (Сезон 1, серий 7 из 16) (Невафильм) (обновляемая)
  • Звёздные войны: Повстанцы 1.0.0 - Официальная игра по мотивам популярного серила [Ru] скачать через торрент бесплатно
  • Звёздные войны: Повстанцы 1.0.2 [Ru / En] скачать через торрент бесплатно
  • Звёздные войны: Сага / Star Wars: The Complete Saga (1977-2005) HDRip [H.264][MP4|960х400] скачать через торрент бесплатно


    • Комментарии (0):

      Информация

      Информация

        Посетители, находящиеся в группе Гости, не могут оставлять комментарии в данной новости.

        ↓ Меню




        ↓ Опрос

        Вы добавили сайт в закладки?
        Да
        Нет


        Top 10 за месяц (Фильмы)