.
Авторизация | Регистрация
Хочешь лучшие торренты? Добавь свой email!
Добавить

Торрент скачать бесплатно

» » На глубине 6 футов / 6 Below: Miracle on the Mountain (2017) BDRip [H.264 / 1080p] торрент скачать бесплатно


    На глубине 6 футов / 6 Below: Miracle on the Mountain (2017) BDRip [H.264 / 1080p] торрент скачать бесплатно

    Опубликовал: Админ | Дата: 2-04-2018, 05:00 | .torrent скачали: 0

    На глубине 6 футов / 6 Below: Miracle on the Mountain (2017) BDRip [H.264 / 1080p]Производство: США/October Sky Pictures, Sonar Entertainment
    Жанр: Драма, Приключения, Триллер
    Режиссер: Скотт Во

    Актеры
    Джош Хартнетт, Мира Сорвино, Сара Дюмон, Кейл Калли, Джейсон Коттл, Остин Р. Грант, Нэйтан Стивенс, Марти МакСорели, Шон Пильц, Ваши Недомански, Джои Миясима, Дэвид Стивенс

    Описание

    Фильм основан на реальных событиях.
    После окончания блестящей спортивной карьеры Эрик Лемарк, олимпийский чемпион по хоккею, уже не может жить без адреналина. Теперь драйв он находит в наркотиках и сноуборде. Когда лыжный патруль в горах Маммос (Калифорния) закрывает все трассы из-за надвигающейся бури, Лемарк решает сделать последний спуск и оказывается в смертельной снежной западне...

    Возраст: 16+ (зрителям, достигшим 16 лет)
    Рейтинг MPAA: PG-13 (детям до 13 лет просмотр нежелателен)
    Дата мировой премьеры: 14 сентября 2017
    Дата российской премьеры: 12 октября 2017
    Продолжительность: 01: 37: 55
    Качество видео: BDRip
    Перевод: Дублированный
    Субтитры: Английские (форсированные)
    Видео: AVC/H.264, 1920x696 (2.759), 24 fps, 8333 Kbps
    Аудио #1: DTS 5.1, 1509 kbps/Русский (дублированный)
    Аудио #2: DTS 5.1, 1509 kbps/Английский (оригинал)

    Общее
    Уникальный идентификатор : 249521870823454506901622716461428987091 (0xBBB82A0E3E628B03A0A50DF1907754D3)
    Полное имя : C: ВидеоНа глубине 6 футов (2017) BDRip 1080.mkv
    Формат : Matroska
    Версия формата : Version 4/Version 2
    Размер файла : 7, 76 Гбайт
    Продолжительность : 1 ч. 37 м.
    Общий поток : 11, 3 Мбит/сек
    Название фильма : 6 Below: Miracle on the Mountain (2017)
    Дата кодирования : UTC 2018-04-01 03: 22: 10
    Программа кодирования : mkvmerge v5.9.0 (\'On The Loose\') built on Dec 15 2012 16: 39: 58
    Библиотека кодирования : libebml v1.3.0 + libmatroska v1.4.0
    Видео
    Идентификатор : 1
    Формат : AVC
    Формат/Информация : Advanced Video Codec
    Профиль формата : High@L4.1
    Настройки формата : CABAC/5 Ref Frames
    Параметр CABAC формата : Да
    Параметр RefFrames формата : 5 кадров
    Идентификатор кодека : V_MPEG4/ISO/AVC
    Продолжительность : 1 ч. 37 м.
    Битрейт : 8333 Кбит/сек
    Ширина : 1920 пикселей
    Высота : 696 пикселей
    Соотношение сторон : 2, 759
    Режим частоты кадров : Постоянный
    Частота кадров : 24, 000 кадра/сек
    Цветовое пространство : YUV
    Субдискретизация насыщенности : 4: 2: 0
    Битовая глубина : 8 бит
    Тип развёртки : Прогрессивная
    Бит/(Пиксели*Кадры) : 0.260
    Размер потока : 5, 54 Гбайт (71%)
    Заголовок : potroks
    Библиотека кодирования : x264 core 155 r2901M 7d0ff22
    Настройки программы : cabac=1/ref=5/deblock=1: -3: -3/analyse=0x3: 0x111/me=umh/subme=11/psy=1/psy_rd=1.00: 0.10/mixed_ref=1/me_range=48/chroma_me=1/trellis=2/8x8dct=1/cqm=0/deadzone=21, 11/fast_pskip=0/chroma_qp_offset=-3/threads=9/lookahead_threads=2/sliced_threads=0/nr=0/decimate=0/interlaced=0/bluray_compat=0/constrained_intra=0/bframes=12/b_pyramid=2/b_adapt=2/b_bias=0/direct=3/weightb=1/open_gop=0/weightp=2/keyint=240/keyint_min=23/scenecut=40/intra_refresh=0/rc_lookahead=100/rc=2pass/mbtree=0/bitrate=8333/ratetol=1.0/qcomp=0.70/qpmin=0/qpmax=69/qpstep=4/cplxblur=20.0/qblur=0.5/vbv_maxrate=50000/vbv_bufsize=50000/nal_hrd=none/filler=0/ip_ratio=1.40/pb_ratio=1.30/aq=1: 0.70
    Язык : English
    Default : Да
    Forced : Нет
    Аудио #1
    Идентификатор : 2
    Формат : DTS
    Формат/Информация : Digital Theater Systems
    Идентификатор кодека : A_DTS
    Продолжительность : 1 ч. 37 м.
    Вид битрейта : Постоянный
    Битрейт : 1509 Кбит/сек
    Каналы : 6 каналов
    Расположение каналов : Front: L C R, Side: L R, LFE
    Частота : 48, 0 КГц
    Частота кадров : 93, 750 кадра/сек (512 SPF)
    Битовая глубина : 24 бит
    Метод сжатия : С потерями
    Размер потока : 1, 03 Гбайт (13%)
    Заголовок : Dub | DTS 5.1 @ 1509 kbps - Blu-ray RUS
    Язык : Russian
    Default : Да
    Forced : Нет
    Аудио #2
    Идентификатор : 3
    Формат : DTS
    Формат/Информация : Digital Theater Systems
    Идентификатор кодека : A_DTS
    Продолжительность : 1 ч. 37 м.
    Вид битрейта : Постоянный
    Битрейт : 1509 Кбит/сек
    Каналы : 6 каналов
    Расположение каналов : Front: L C R, Side: L R, LFE
    Частота : 48, 0 КГц
    Частота кадров : 93, 750 кадра/сек (512 SPF)
    Битовая глубина : 24 бит
    Метод сжатия : С потерями
    Размер потока : 1, 03 Гбайт (13%)
    Заголовок : Original | DTS 5.1 @ 1509 kbps
    Язык : English
    Default : Нет
    Forced : Нет
    Текст
    Идентификатор : 4
    Формат : UTF-8
    Идентификатор кодека : S_TEXT/UTF8
    Идентификатор кодека/Информация : UTF-8 Plain Text
    Заголовок : Forced
    Язык : English
    Default : Нет
    Forced : Нет
    Меню
    00: 00: 00.000 : en: (01)00: 00: 00: 000
    00: 11: 16.916 : en: (02)00: 11: 16: 916
    00: 19: 13.083 : en: (03)00: 19: 13: 083
    00: 28: 02.290 : en: (04)00: 28: 02: 290
    00: 38: 49.958 : en: (05)00: 38: 49: 958
    00: 47: 14.208 : en: (06)00: 47: 14: 208
    00: 54: 47.458 : en: (07)00: 54: 47: 458
    01: 05: 56.041 : en: (08)01: 05: 56: 041
    01: 15: 09.666 : en: (09)01: 15: 09: 666
    01: 24: 23.832 : en: (10)01: 24: 23: 832
    01: 34: 21.207 : en: (11)01: 34: 21: 207

    Скриншоты для ознакомления



    Все одноименные релизы в Клубе
    Время раздачи: 24/7


    Онлайн видео На глубине 6 футов



    На глубине 6 футов/6 Below: Miracle on the Mountain (2017) BDRip [H.264/1080p]
    Рейтинг →
     (голосов: 1, оценка 4/5, голосовать можно 1 раз )

    Другие торренты по теме:

  • На глубине 6 футов / 6 Below: Miracle on the Mountain (2017) WEB-DLRip [H.264 / 1080p-LQ] [Звук с TS] [AD]
  • На глубине 6 футов / 6 Below: Miracle on the Mountain (2017) WEB-DL [Звук с TS]
  • На глубине 6 футов / 6 Below: Miracle on the Mountain (2017) WEB-DL [H.264 / 1080p-LQ] [EN / EN Sub]
  • На глубине 6 футов / 6 Below: Miracle on the Mountain (2017) WEB-DLRip [H.264]
  • На глубине 6 футов / 6 Below: Miracle on the Mountain (2017) WEB-DLRip
  • На глубине 6 футов / 6 Below: Miracle on the Mountain (2017) WEB-DL [H.264 / 1080p-LQ]
  • На глубине 6 футов / 6 Below: Miracle on the Mountain (2017) WEB-DL [1080p] ATV
  • На глубине 6 футов / 6 Below: Miracle on the Mountain (2017) WEB-DLRip [576p] iPad


    • Комментарии (0):

      Информация

      Информация

        Посетители, находящиеся в группе Гости, не могут оставлять комментарии в данной новости.

        ↓ Меню




        ↓ Опрос

        Вы добавили сайт в закладки?
        Да
        Нет


        Top 10 за месяц (Фильмы)