.
Авторизация | Регистрация
Хочешь лучшие торренты? Добавь свой email!
Добавить

Торрент скачать бесплатно

» » Звёздные войны: Последние джедаи / Star Wars: Episode VIII - The Last Jedi (2017) BDRip 3D [H.264 / 1080p] [Вертикальная анаморфная стереопара] торрент скачать бесплатно


    Звёздные войны: Последние джедаи / Star Wars: Episode VIII - The Last Jedi (2017) BDRip 3D [H.264 / 1080p] [Вертикальная анаморфная стереопара] торрент скачать бесплатно

    Опубликовал: Админ | Дата: 2-04-2018, 05:00 | .torrent скачали: 0

    Звёздные войны: Последние джедаи / Star Wars: Episode VIII - The Last Jedi (2017) BDRip 3D [H.264 / 1080p] [Вертикальная анаморфная стереопара]Производство: США/Walt Disney Pictures
    Жанр: фантастика, фэнтези, боевик, приключения
    Режиссер: Райан Джонсон
    Продюсер: Джей Джей Абрамс, Пиппа Андерсон, Рэм Бергман

    Актеры
    Джон Бойега, Дэйзи Ридли, Кэрри Фишер, Оскар Айзек, Адам Драйвер, Донал Глисон, Марк Хэмилл, Макс фон Сюдов, Энди Серкис, Лупита Нионго, Энтони Дэниелс и др.

    Описание

    Новая история о противостоянии света и тьмы, добра и зла начинается после гибели Хана Соло. В Галактике, где Первый Орден и Сопротивление яростно сражаются друг с другом в войне, героиня Рей пробудила в себе Силу. Но что произойдет, когда она встретится с единственным оставшимся в живых рыцарем-джедаем — Люком Скайуокером?
    Кайло Рен перешел на Темную сторону Силы и убил собственного отца, заняв высокую позицию в Первом Ордене. Но куда приведут его неуемные амбиции, подаренные по наследству грозным дедом Дартом Вейдером? Ситуация обострится еще больше, когда мать Кайло, лидер Сопротивления Лея, вместе с По, Финном и BB-8 приступит к новой миссии.

    Возраст: 16+ (зрителям, достигшим 16 лет)
    Рейтинг MPAA: PG-13 (детям до 13 лет просмотр нежелателен)
    Дата мировой премьеры: 9 декабря 2017
    Премьера (РФ): 14 декабря 2017, WDSSPR 3D
    Релиз на Blu-ray/DVD: 3 апреля 2018, Уолт Дисней Компани СНГ

    Релиз от: Ash61
    Продолжительность: 02: 31: 51
    Качество: BDRip 3D
    Перевод: Дублированный (iTunes)
    Субтитры: Русские (forced, full, SDH), английские. (Вшитые, внешние)
    Видео: H.264/AVC, 1920x1080, (16: 9), 12 Mbps, 23.976 fps
    Аудио: AC3, 6 ch, 384 kbps - Русский
    Аудио: AC3, 6 ch, 640 kbps - Английский
    General
    Unique ID : 177083634684919493523824906310334092972 (0x85391145B7CC48D9AAF28F393ADD16AC)
    Complete name : D: StarWars-8(2017)3D-halfOU(Ash61)Video.EngiTunesStarWars-8(2017)3D-halfOU(Ash61)Video.EngiTunes.mkv
    Format : Matroska
    Format version : Version 2
    File size : 13.8 GiB
    Duration : 2h 31mn
    Overall bit rate : 13.0 Mbps
    Movie name : Звёздные войны: Последние джедаи/Star Wars: Episode VIII - The Last Jedi (2017) in 3D
    Encoded date : UTC 2018-03-29 14: 37: 21
    Writing application : mkvmerge v5.8.0 (\'No Sleep/Pillow\') built on Sep 2 2012 15: 37: 04
    Writing library : libebml v1.2.3 + libmatroska v1.3.0
    Video
    ID : 1
    Format : AVC
    Format/Info : Advanced Video Codec
    Format profile : High@L4.1
    Format settings, CABAC : Yes
    Format settings, ReFrames : 4 frames
    Codec ID : V_MPEG4/ISO/AVC
    Duration : 2h 31mn
    Bit rate : 12.0 Mbps
    Width : 1 920 pixels
    Height : 1 080 pixels
    Display aspect ratio : 16: 9
    Frame rate mode : Constant
    Frame rate : 23.976 (24000/1001) fps
    Color space : YUV
    Chroma subsampling : 4: 2: 0
    Bit depth : 8 bits
    Scan type : Progressive
    Bits/(Pixel*Frame) : 0.241
    Stream size : 12.5 GiB (90%)
    Title : BDRip by Ash61
    Writing library : x264 core 146 r2538 121396c
    Encoding settings : cabac=1/ref=4/deblock=1: -3: -3/analyse=0x3: 0x113/me=umh/subme=10/psy=1/psy_rd=1.00: 0.00/mixed_ref=1/me_range=32/chroma_me=1/trellis=2/8x8dct=1/cqm=0/deadzone=21, 11/fast_pskip=0/chroma_qp_offset=-2/threads=12/lookahead_threads=3/sliced_threads=0/nr=0/decimate=0/interlaced=0/bluray_compat=0/constrained_intra=0/bframes=10/b_pyramid=2/b_adapt=2/b_bias=0/direct=3/weightb=1/open_gop=0/weightp=2/keyint=250/keyint_min=23/scenecut=40/intra_refresh=0/rc_lookahead=60/rc=2pass/mbtree=0/bitrate=12000/ratetol=1.0/qcomp=0.70/qpmin=0/qpmax=69/qpstep=4/cplxblur=20.0/qblur=0.5/vbv_maxrate=40000/vbv_bufsize=30000/nal_hrd=none/filler=0/frame-packing=4/ip_ratio=1.40/pb_ratio=1.30/aq=1: 0.70
    Language : English
    Default : Yes
    Forced : No
    Audio #1
    ID : 2
    Format : AC-3
    Format/Info : Audio Coding 3
    Mode extension : CM (complete main)
    Format settings, Endianness : Big
    Codec ID : A_AC3
    Duration : 2h 31mn
    Bit rate mode : Constant
    Bit rate : 384 Kbps
    Channel(s) : 6 channels
    Channel positions : Front: L C R, Side: L R, LFE
    Sampling rate : 48.0 KHz
    Frame rate : 31.250 fps (1536 spf)
    Compression mode : Lossy
    Stream size : 417 MiB (3%)
    Title : Дубляж - iTunes
    Language : Russian
    Default : Yes
    Forced : No
    Audio #2
    ID : 3
    Format : AC-3
    Format/Info : Audio Coding 3
    Mode extension : CM (complete main)
    Format settings, Endianness : Big
    Codec ID : A_AC3
    Duration : 2h 31mn
    Bit rate mode : Constant
    Bit rate : 640 Kbps
    Channel(s) : 6 channels
    Channel positions : Front: L C R, Side: L R, LFE
    Sampling rate : 48.0 KHz
    Frame rate : 31.250 fps (1536 spf)
    Compression mode : Lossy
    Stream size : 695 MiB (5%)
    Title : Original
    Language : English
    Default : No
    Forced : No
    Text #1
    ID : 4
    Format : UTF-8
    Codec ID : S_TEXT/UTF8
    Codec ID/Info : UTF-8 Plain Text
    Title : Форсированные
    Language : Russian
    Default : Yes
    Forced : No
    Text #2
    ID : 5
    Format : UTF-8
    Codec ID : S_TEXT/UTF8
    Codec ID/Info : UTF-8 Plain Text
    Title : Полные
    Language : Russian
    Default : No
    Forced : No
    Text #3
    ID : 6
    Format : UTF-8
    Codec ID : S_TEXT/UTF8
    Codec ID/Info : UTF-8 Plain Text
    Title : SDH
    Language : Russian
    Default : No
    Forced : No
    Text #4
    ID : 7
    Format : UTF-8
    Codec ID : S_TEXT/UTF8
    Codec ID/Info : UTF-8 Plain Text
    Title : Full
    Language : English
    Default : No
    Forced : No
    Text #5
    ID : 8
    Format : UTF-8
    Codec ID : S_TEXT/UTF8
    Codec ID/Info : UTF-8 Plain Text
    Title : SDH
    Language : English
    Default : No
    Forced : No
    Menu
    00: 00: 00.000 : : 1. Opening Logo
    00: 00: 18.644 : : 2. The Last Jedi
    00: 01: 45.731 : : 3. Resistance Evacuation
    00: 03: 11.817 : : 4. Poe Attacks
    00: 07: 43.296 : : 5. Bombing Run
    00: 12: 48.434 : : 6. Finn Awakens
    00: 13: 44.574 : : 7. Luke\'s Refusal
    00: 16: 29.280 : : 8. Snoke\'s Rebuke
    00: 19: 59.281 : : 9. Island Life
    00: 22: 51.370 : : 10. Time for the Jedi to End
    00: 26: 04.980 : : 11. Dead Heroes. No Leaders
    00: 27: 22.850 : : 12. First Order Ambush
    00: 31: 24.758 : : 13. Survival
    00: 32: 54.681 : : 14. Falcon at Night
    00: 35: 27.667 : : 15. Vice Admiral Holdo
    00: 38: 11.498 : : 16. Finn Meets Rose
    00: 41: 53.428 : : 17. A Conspiracy Forms
    00: 44: 29.542 : : 18. Force Connection
    00: 46: 51.475 : : 19. Lessons in the Force
    00: 51: 41.932 : : 20. Reconnection
    00: 53: 50.060 : : 21. Arrival at Canto Bight
    00: 55: 41.505 : : 22. The Race Begins
    00: 57: 39.581 : : 23. Lightsaber Training
    00: 59: 16.636 : : 24. Luke\'s History Lesson
    01: 02: 05.847 : : 25. The Shrinking Fleet
    01: 03: 07.701 : : 26. Meeting DJ
    01: 05: 41.729 : : 27. Inside the Stables
    01: 07: 03.478 : : 28. Fathier Escape
    01: 10: 25.721 : : 29. Kylo\'s History Lesson
    01: 13: 30.323 : : 30. The Mirror Cave
    01: 17: 43.450 : : 31. Rey vs. Luke
    01: 20: 53.057 : : 32. An Old Friend
    01: 24: 17.970 : : 33. Making the Deal
    01: 26: 23.220 : : 34. Poe Confronts Holdo
    01: 27: 59.524 : : 35. Plotting Next Moves
    01: 30: 49.361 : : 36. Inside the Mega-Destroyer
    01: 32: 54.569 : : 37. Reversals
    01: 35: 53.706 : : 38. Abandon Ship
    01: 37: 10.616 : : 39. Rey Faces Snoke
    01: 39: 12.864 : : 40. Darkness Grows
    01: 42: 07.663 : : 41. Kylo\'s Choice
    01: 45: 03.714 : : 42. Praetorian Duel
    01: 49: 35.694 : : 43. Holdo\'s Sacrifice
    01: 52: 20.609 : : 44. Chaos in the Hangar
    01: 56: 04.749 : : 45. Reunion on Crait
    01: 58: 52.083 : : 46. The Battle of Crait
    02: 03: 11.134 : : 47. Siege Cannon
    02: 06: 39.759 : : 48. Master Skywalker
    02: 11: 43.604 : : 49. Lifting Rocks
    02: 15: 12.104 : : 50. Sunset
    02: 20: 16.700 : : 51. The Resistance Continues
    02: 23: 39.694 : : 52. End Credits
    YouTube

    Скриншоты для ознакомления


    Релизы фильма Звёздные войны: Последние джедаи/Star Wars: Episode VIII - The Last Jedi на NNM Club
    Время раздачи: с 9: 00 до 23: 00


    Онлайн видео Звёздные войны: Последние джедаи



    Звёздные войны: Последние джедаи/Star Wars: Episode VIII - The Last Jedi (2017) BDRip 3D [H.264/1080p] [Вертикальная анаморфная стереопара]
    Рейтинг →
     (голосов: 1, оценка 5/5, голосовать можно 1 раз )

    Другие торренты по теме:

  • Звёздные войны. Эпизод 5: Империя наносит ответный удар / Star Wars: Episode V - The Empire Strikes Back / Despecialized Edition Theatrical reconstruction HD (1980) BDRip скачать через торрент бесплатно
  • Звёздные войны: Повстанцы / Star Wars: Rebels (2014) WEB-DLRip (Сезон 1, Серий 3 из 16) (LostFilm)
  • Финес и Ферб. Звёздные войны / Phineas and Ferb: Star Wars (2014) WEB-DLRip (ЛанселаП) скачать через торрент бесплатно
  • Звёздные войны: Повстанцы / Star Wars: Rebels (2014) WEB-DLRip [1080p] (Сезон 1, серий 8 из 16) (LostFilm) скачать через торрент бесплатно
  • Звёздные войны: Повстанцы / Star Wars: Rebels (2014) WEB-DLRip (Сезон 1, серий 7 из 16) (Невафильм) (обновляемая)
  • Звёздные войны: Повстанцы 1.0.0 - Официальная игра по мотивам популярного серила [Ru] скачать через торрент бесплатно
  • Звёздные войны: Повстанцы 1.0.2 [Ru / En] скачать через торрент бесплатно
  • Звёздные войны: Сага / Star Wars: The Complete Saga (1977-2005) HDRip [H.264][MP4|960х400] скачать через торрент бесплатно


    • Комментарии (0):

      Информация

      Информация

        Посетители, находящиеся в группе Гости, не могут оставлять комментарии в данной новости.

        ↓ Меню




        ↓ Опрос

        Вы добавили сайт в закладки?
        Да
        Нет


        Top 10 за месяц (Фильмы)