.
Авторизация | Регистрация
Хочешь лучшие торренты? Добавь свой email!
Добавить

Торрент скачать бесплатно

» » Я сражаюсь с великанами / I Kill Giants (2017) WEB-DLRip [H.264 / 720p-LQ] [Line] [AD] торрент скачать бесплатно


    Я сражаюсь с великанами / I Kill Giants (2017) WEB-DLRip [H.264 / 720p-LQ] [Line] [AD] торрент скачать бесплатно

    Опубликовал: Админ | Дата: 2-04-2018, 05:00 | .torrent скачали: 1

    Я сражаюсь с великанами / I Kill Giants (2017) WEB-DLRip [H.264 / 720p-LQ] [Line] [AD]Производство: Бельгия, Великобритания, США | 1492 Pictures, Having Me Films, uMedia Family
    Жанр: фэнтези, триллер, драма
    Режиссер: Андерс Вальтер Хансен

    Актеры
    Мэдисон Вульф, Зои Салдана, Имоджен Путс, Сидни Вэйд, Рори Джексон, Аллана О’Коннор, Майя Питерс, Арт Паркинсон, Дженнифер Эль, Дон Вичерли

    Описание

    Барбара Торсон — особенная, ее уникальный талант — это возможность видеть мир великанов. И этот мир угрожает людям. Барбаре никто не верит, но она единственная, кто может спасти человечество от исчезновения. Она объявляет великанам войну и готовится к главному сражению в своей жизни.

    Возраст: 12+ (зрителям, достигшим 12 лет)
    Дата мировой премьеры: 9 сентября 2017
    Дата российской премьеры: 29 марта 2018 Экспонента
    Продолжительность: 01: 48: 38
    Качество видео: WEB-DLRip
    Перевод: Дублированный (Чистый звук)
    Субтитры: Отсутствуют
    Реклама: Присутствуют аудио, видео и текстовые вставки
    Видео: AVC/H.264, 1280x534 (2.40: 1), ~4862 kbps, 23.976 fps
    Аудио: AC3, 2 ch, 48.0 kHz, 384 kbps

    General
    Unique ID : 177688262610016433526016104799753624158 (0x85AD83BB08F4A335A4670AB2C0965A5E)
    Complete name : D: I Kill Giants 720.mkv
    Format : Matroska
    Format version : Version 2
    File size : 3.98 GiB
    Duration : 1 h 48 min
    Overall bit rate mode : Variable
    Overall bit rate : 5 248 kb/s
    Encoded date : UTC 2018-04-01 05: 41: 48
    Writing application : mkvmerge v8.3.0 (\'Over the Horizon\') 64bit
    Writing library : libebml v1.3.1 + libmatroska v1.4.2
    Video
    ID : 1
    Format : AVC
    Format/Info : Advanced Video Codec
    Format profile : High@L4.1
    Format settings, CABAC : Yes
    Format settings, ReFrames : 4 frames
    Codec ID : V_MPEG4/ISO/AVC
    Duration : 1 h 48 min
    Bit rate mode : Variable
    Bit rate : 4 862 kb/s
    Maximum bit rate : 5 400 kb/s
    Width : 1 280 pixels
    Height : 534 pixels
    Display aspect ratio : 2.40: 1
    Frame rate mode : Constant
    Frame rate : 23.976 (24000/1001) FPS
    Standard : Component
    Color space : YUV
    Chroma subsampling : 4: 2: 0
    Bit depth : 8 bits
    Scan type : Progressive
    Bits/(Pixel*Frame) : 0.297
    Stream size : 3.69 GiB (93%)
    Default : Yes
    Forced : No
    Color range : Limited
    Color primaries : BT.709
    Transfer characteristics : BT.709
    Matrix coefficients : BT.709
    Audio
    ID : 2
    Format : AC-3
    Format/Info : Audio Coding 3
    Format settings, Endianness : Big
    Codec ID : A_AC3
    Duration : 1 h 48 min
    Bit rate mode : Constant
    Bit rate : 384 kb/s
    Channel(s) : 2 channels
    Channel positions : Front: L R
    Sampling rate : 48.0 kHz
    Frame rate : 31.250 FPS (1536 spf)
    Bit depth : 16 bits
    Compression mode : Lossy
    Stream size : 298 MiB (7%)
    Service kind : Complete Main
    Default : Yes
    Forced : No

    Скриншоты для ознакомления



    Все одноименные релизы в Клубе
    Время раздачи: 24/7 (до появления первых 3-5 скачавших)


    Онлайн видео Я сражаюсь с великанами



    Я сражаюсь с великанами/I Kill Giants (2017) WEB-DLRip [H.264/720p-LQ] [Line] [AD]
    Рейтинг →
     (голосов: 1, оценка 5/5, голосовать можно 1 раз )

    Другие торренты по теме:

  • Я сражаюсь с великанами / I Kill Giants (2017) BDRemux [H.264 / 1080p]
  • Я сражаюсь с великанами / I Kill Giants (2017) WEB-DLRip [MVO] [AD]
  • Я сражаюсь с великанами / I Kill Giants (2017) WEB-DLRip [H.264 / 1080p-LQ] [MVO] [AD]
  • Я сражаюсь с великанами / I Kill Giants (2017) WEB-DLRip [H.264 / 1080p-LQ] [MVO]
  • Я сражаюсь с великанами / I Kill Giants (2017) WEB-DLRip [H.264]
  • Я сражаюсь с великанами / I Kill Giants (2017) WEB-DL [H.264 / 1080p-LQ]
  • Я сражаюсь с великанами / I Kill Giants (2017) WEB-DL [1080p] ATV
  • Я сражаюсь с великанами / I Kill Giants (2017) WEB-DL [720p] ATV


    • Комментарии (0):

      Информация

      Информация

        Посетители, находящиеся в группе Гости, не могут оставлять комментарии в данной новости.

        ↓ Меню




        ↓ Опрос

        Вы добавили сайт в закладки?
        Да
        Нет


        Top 10 за месяц (Фильмы)