.
Авторизация | Регистрация
Хочешь лучшие торренты? Добавь свой email!
Добавить

Торрент скачать бесплатно

» » Американцы / The Americans (2018) WEB-DLRip (сезон 6, серии 1 из 10) NewStudio (обновляемая) торрент скачать бесплатно


    Американцы / The Americans (2018) WEB-DLRip (сезон 6, серии 1 из 10) NewStudio (обновляемая) торрент скачать бесплатно

    Опубликовал: Админ | Дата: 1-04-2018, 05:00 | .torrent скачали: 2

    Американцы / The Americans (2018) WEB-DLRip (сезон 6, серии 1 из 10) NewStudio (обновляемая)Производство: США/Amblin Television, DreamWorks Television
    Жанр: триллер, драма, криминал, детектив
    Режиссер: Крис Лонг, Томас Шламми, Дэниэл Эттиэс

    Актеры
    Кери Рассел, Мэттью Риз, Кейдрич Селлати, Холли Тейлор, Ноа Эммерих, Коста Ронин, Лев Горн, Брэндон Дж. Дирден, Марго Мартиндейл, Аарон Роман Уэйнер и др.

    Описание

    Шестой сезон любимого сериала американского семейного шпионского сериала.
    История о сложном браке двух агентов КГБ, которые под видом американцев заселяются в пригород Вашингтона сразу после того, как президентом избирают Рейгана. Подставной брак Филлипа и Элизабет с каждым днем становится все более настоящим и эмоциональным, несмотря на эскалацию холодной войны и опасные отношения, которые они должны поддерживать с сетью шпионов и информаторов.

    Возраст: 18+ (зрителям, достигшим 18 лет)
    Продолжительность: ~00: 54: 00 серия
    Качество видео: WEB-DLRip
    Перевод: Многоголосый закадровый, профессиональный -NewStudio
    Видео: XviD, 720x400 (16: 9), ~1506 kbps
    Аудио 1: MP3, 48, 0 kHz, 2 ch, 128 kbps — русский, многоголосый закадровый
    Аудио 2: MP3, 48, 0 kHz, 2 ch, 128 kbps — английский

    Общее
    Полное имя : D: Американцы (сезон любимого сериала 6) The Americans (2018) WEB-DLRip - NewStudioThe.Americans.S06E01.WEB-DLRip.Rus.Eng.DV.NewStudio.avi
    Формат : AVI
    Формат/Информация : Audio Video Interleave
    Размер файла : 687 Мбайт
    Продолжительность : 54 м. 5 с.
    Общий поток : 1776 Кбит/сек
    Название фильма : The.Americans.S06E01.WEB-DLRip.Rus.Eng.DV.NewStudio/NNM-Club
    Программа кодирования : VirtualDubModRus 1.5.10.2 (build 2542/release)
    Библиотека кодирования : VirtualDubMod build 2542/release
    Видео
    Идентификатор : 0
    Формат : MPEG-4 Visual
    Профиль формата : Advanced Simple@L5
    Настройки формата : BVOP2
    Параметр BVOP формата : 2
    Параметр QPel формата : Нет
    Параметр GMC формата : Без точки перехода
    Параметр матрицы формата : Default (H.263)
    Идентификатор кодека : XVID
    Идентификатор кодека/Подсказка : XviD
    Продолжительность : 54 м. 5 с.
    Битрейт : 1506 Кбит/сек
    Ширина : 720 пикселей
    Высота : 400 пикселей
    Соотношение сторон : 16: 9
    Частота кадров : 23, 976 (24000/1001) кадра/сек
    Цветовое пространство : YUV
    Субдискретизация насыщенности : 4: 2: 0
    Битовая глубина : 8 бит
    Тип развёртки : Прогрессивная
    Метод сжатия : С потерями
    Бит/(Пиксели*Кадры) : 0.218
    Размер потока : 583 Мбайт (85%)
    Заголовок : Rip by DriverV/NNM-Club
    Библиотека кодирования : XviD 67
    Аудио #1
    Идентификатор : 1
    Формат : MPEG Audio
    Версия формата : Version 1
    Профиль формата : Layer 3
    Настройки формата : Joint stereo/MS Stereo
    Идентификатор кодека : 55
    Идентификатор кодека/Подсказка : MP3
    Продолжительность : 54 м. 5 с.
    Вид битрейта : Постоянный
    Битрейт : 128 Кбит/сек
    Каналы : 2 канала
    Частота : 48, 0 КГц
    Метод сжатия : С потерями
    Размер потока : 49, 5 Мбайт (7%)
    Выравнивание : Соединение по промежуткам
    Продолжительность промежутка : 42 мс. (1, 00 видеокадр)
    Время предзагрузки промежутка : 504 мс.
    Аудио #2
    Идентификатор : 2
    Формат : MPEG Audio
    Версия формата : Version 1
    Профиль формата : Layer 3
    Настройки формата : Joint stereo/MS Stereo
    Идентификатор кодека : 55
    Идентификатор кодека/Подсказка : MP3
    Продолжительность : 54 м. 5 с.
    Вид битрейта : Постоянный
    Битрейт : 128 Кбит/сек
    Каналы : 2 канала
    Частота : 48, 0 КГц
    Метод сжатия : С потерями
    Размер потока : 49, 5 Мбайт (7%)
    Выравнивание : Соединение по промежуткам
    Продолжительность промежутка : 42 мс. (1, 00 видеокадр)
    Время предзагрузки промежутка : 504 мс.


    Онлайн видео Американцы



    Американцы/The Americans (2018) WEB-DLRip (сезон 6, серии 1 из 10) NewStudio (обновляемая)
    Рейтинг →
     (голосов: 1, оценка 4/5, голосовать можно 1 раз )

    Другие торренты по теме:

  • Американцы / The Americans (2015) WEBDLRip (сезон 3, серии 01 из 13) (NewStudio) (обновляемая)
  • Американцы / The Americans (2015) WEB-DL [H.264 / 720p-LQ] (сезон 3, серии 1 из 13) NewStudio (обновляемая) скачать через торрент бесплатно
  • Американцы / The Americans (2016) WEB-DL [H.264 / 720p-LQ] (сезон 4, серии 1 из 13) NewStudio (обновляемая)
  • Американцы / The Americans (2016) WEB-DL [H.264 / 1080p] (сезон 4, серии 1-2 из 13) NewStudio (обновляемая)
  • Американцы / The Americans (2016) WEB-DLRip (сезон 4, серии 1-3 из 13) NewStudio (обновляемая)
  • Мои дорогие американцы / My Fellow Americans (1996) WEB-DL [H.264 / 1080p-LQ]
  • Американцы / The Americans (2017) WEB-DLRip (сезон 5, серии 1 из 13) NewStudio (обновляемая)


    • Комментарии (0):

      Информация

      Информация

        Посетители, находящиеся в группе Гости, не могут оставлять комментарии в данной новости.

        ↓ Меню




        ↓ Опрос

        Вы добавили сайт в закладки?
        Да
        Нет


        Top 10 за месяц (Фильмы)