.
Авторизация | Регистрация
Хочешь лучшие торренты? Добавь свой email!
Добавить

Торрент скачать бесплатно

  • support: webmaster@btracker.org
» » Ни слова о любви (2018) WEB-DLRip (серии 1-4 из 4) торрент скачать бесплатно


    Ни слова о любви (2018) WEB-DLRip (серии 1-4 из 4) торрент скачать бесплатно

    Опубликовал: Админ | Дата: 1-04-2018, 05:00 | .torrent скачали: 0

    Ни слова о любви (2018) WEB-DLRip (серии 1-4 из 4)Производство: Украина/Кинокомпания УПС
    Жанр: Мелодрама
    Режиссер: Антон Азаров

    Актеры
    Юлия Топольницкая, Валерия Ходос, Фатима Горбенко, Константин Октябрьский, Артем Алексеев, Михаил Гаврилов (II), Инна Капинос, Любовь Томашевская, Владимир Ращук, Алексей Вертинский

    Описание

    Кирилл, Миша и Антон дружат еще со школы. Когда-то они мечтали стать путешественниками и втроем объездить весь мир, но жизнь распорядилась иначе. Спутницы жизни у них отсутствуют по разным причинам. Но судьба решает испытать на прочность и дружбу, и их жизненные установки. Мишу однажды приглашают поучаствовать в утренней телепередаче - и в лице ведущей Сони он неожиданно встречает свою вторую половину. Вот только познакомить друзей со своей избранницей Миша никак не решается, чем вызывает у Сони нехорошие подозрения...
    Дата мировой премьеры: 31 марта 2018
    Продолжительность: ~00: 50: 00 серия
    Качество видео: WEB-DLRip
    Язык озвучки: Русский
    Субтитры: Отсутствуют
    Видео: XviD, 720x400, ~1649 Kbps
    Аудио: AC-3, 2 ch, 192 Kbps

    Общее
    Полное имя : E: NNMНи слова о любвиNi slova o lubvi 2018 WEB-DLRip1.Ni.slova.avi
    Формат : AVI
    Формат/Информация : Audio Video Interleave
    Размер файла : 647 Мбайт
    Продолжительность : 48 м. 49 с.
    Общий поток : 1851 Кбит/сек
    Программа кодирования : Lavf56.36.100
    Видео
    Идентификатор : 0
    Формат : xvid
    Идентификатор кодека : xvid
    Продолжительность : 48 м. 49 с.
    Битрейт : 1649 Кбит/сек
    Ширина : 720 пикселей
    Высота : 400 пикселей
    Соотношение сторон : 16: 9
    Частота кадров : 25, 000 кадров/сек
    Тип развёртки : Прогрессивная
    Бит/(Пиксели*Кадры) : 0.229
    Размер потока : 576 Мбайт (89%)
    Аудио
    Идентификатор : 1
    Формат : AC-3
    Формат/Информация : Audio Coding 3
    Идентификатор кодека : 2000
    Продолжительность : 48 м. 49 с.
    Вид битрейта : Постоянный
    Битрейт : 192 Кбит/сек
    Каналы : 2 канала
    Расположение каналов : Front: L R
    Частота : 44, 1 КГц
    Частота кадров : 28, 711 кадров/сек (1536 SPF)
    Битовая глубина : 16 бит
    Метод сжатия : С потерями
    Размер потока : 67, 0 Мбайт (10%)
    Выравнивание : Соединение по промежуткам
    Продолжительность промежутка : 35 мс. (0, 87 видеокадр)
    ServiceKind/String : Complete Main

    Скриншоты для ознакомления



    Все одноименные релизы в Клубе Время раздачи: 24/7 (до появления первых 3-5 скачавших)


    Онлайн видео Ни слова о любви (2018) WEB



    Ни слова о любви (2018) WEB-DLRip (серии 1-4 из 4)
    Рейтинг →
     (голосов: 1, оценка 4/5, голосовать можно 1 раз )

    Другие торренты по теме:

  • Сара Джио | Тихие слова любви (2017) [FB2]
  • Мирница (изд.) | Слова любви и утешения. Из писем схиархимандрита Виталия (Сидоренко) (2017) [PDF, DJVU]


    • Комментарии (0):

      Информация

      Информация

        Посетители, находящиеся в группе Гости, не могут оставлять комментарии в данной новости.

        ↓ Меню




        ↓ Опрос

        Вы добавили сайт в закладки?
        Да
        Нет


        Top 10 за месяц (Фильмы)