.
Авторизация | Регистрация
Хочешь лучшие торренты? Добавь свой email!
Добавить

Торрент скачать бесплатно

» » Невский. Проверка на прочность (2017) HDTVRip (сезон 2, серии 1-32 из 32) торрент скачать бесплатно


    Невский. Проверка на прочность (2017) HDTVRip (сезон 2, серии 1-32 из 32) торрент скачать бесплатно

    Опубликовал: Админ | Дата: 1-04-2018, 05:00 | .torrent скачали: 0

    Невский. Проверка на прочность (2017) HDTVRip (сезон 2, серии 1-32 из 32)Производство: Россия/Триикс Медиа
    Жанр: драма, криминал
    Режиссер: Андрей Коршунов, Алексей Павлов, Игорь Драка

    Актеры
    Антон Васильев, Андрей Гульнев, Сергей Кошонин, Дмитрий Паламарчук, Светлана Цвиченко, Николай Смирнов, Юрий Архангельский, Николай Горшков, Мария Капустинская, Игорь Михайлов и др.

    Описание

    Прошло больше года с тех пор, как майор полиции Павел Семёнов сумел вычислить и задержать легендарного киллера по кличке Архитектор. Однако это не принесло оперу долгожданной радости. Ведь Архитектором оказался его близкий друг и бывший напарник по службе в уголовном розыске - Кирилл Назаров.
    Переживает Семёнов и другую личную трагедию. Его жена Юля подверглась нападению вооруженных наркоманов и применила против них травматический пистолет. Один из наркоманов погиб, а второй дал показания против самой Юли. Суд принял сторону следствия и приговорил девушку к трём годам лишения свободы в колонии общего режима.
    В результате этих событий Семёнов решил оставить службу в органах. Во-первых, он разочарован в полицейской системе. Во-вторых, он хочет больше времени проводить со своим сыном. Паша понимает, что если с ним что-нибудь случится на службе - о его сыне будет некому позаботиться...

    Возраст: 16+ (зрителям, достигшим 16 лет)
    Продолжительность: ~00: 50: 00 серия
    Качество видео: HDTVRip
    Видео: XviD, 720x400 (16: 9), ~1591 Kbps
    Аудио: AC-3, 48.0 KHz, 2 ch, 192 Kbps, CBR

    Общее
    Полное имя : D: NNMНевскийNevskij-2 2017 HDTVRip1.Nevskij-2.2017.HDTVRip.Files-x.avi
    Формат : AVI
    Формат/Информация : Audio Video Interleave
    Размер файла : 649 Мбайт
    Продолжительность : 50 м. 39 с.
    Общий поток : 1792 Кбит/сек
    Программа кодирования : VirtualDubMod 1.5.10.3 |www.virtualdub-fr.org|| (build 2550/release)
    Библиотека кодирования : VirtualDubMod build 2550/release
    Видео
    Идентификатор : 0
    Формат : MPEG-4 Visual
    Профиль формата : Advanced Simple@L5
    Параметр BVOP формата : 1
    Параметр QPel формата : Нет
    Параметр GMC формата : Без точки перехода
    Параметр матрицы формата : Выборочная
    Идентификатор кодека : XVID
    Идентификатор кодека/Подсказка : XviD
    Продолжительность : 50 м. 39 с.
    Битрейт : 1591 Кбит/сек
    Ширина : 720 пикселей
    Высота : 400 пикселей
    Соотношение сторон : 16: 9
    Частота кадров : 25, 000 кадров/сек
    Цветовое пространство : YUV
    Субдискретизация насыщенности : 4: 2: 0
    Битовая глубина : 8 бит
    Тип развёртки : Прогрессивная
    Метод сжатия : С потерями
    Бит/(Пиксели*Кадры) : 0.221
    Размер потока : 576 Мбайт (89%)
    Библиотека кодирования : XviD 73
    Аудио
    Идентификатор : 1
    Формат : AC-3
    Формат/Информация : Audio Coding 3
    Расширение режима : CM (complete main)
    Параметр Endianness формата : Big
    Идентификатор кодека : 2000
    Продолжительность : 50 м. 39 с.
    Вид битрейта : Постоянный
    Битрейт : 192 Кбит/сек
    Каналы : 2 канала
    Расположение каналов : Front: L R
    Частота : 48, 0 КГц
    Частота кадров : 31, 250 кадров/сек (1536 spf)
    Битовая глубина : 16 бит
    Метод сжатия : С потерями
    Размер потока : 69, 6 Мбайт (11%)
    Выравнивание : Разделение по промежуткам
    Продолжительность промежутка : 40 мс. (1, 00 видеокадр)
    Время предзагрузки промежутка : 500 мс.


    Онлайн видео Невский. Проверка на прочность (2017) HDTVRip (сезон любимого сериала 2, серии 1



    Невский. Проверка на прочность (2017) HDTVRip (сезон 2, серии 1-32 из 32)
    Рейтинг →
     (голосов: 1, оценка 4/5, голосовать можно 1 раз )

    Другие торренты по теме:

  • Невский. Проверка на прочность (2017) HDTVRip (сезон 2, серии 1-22 из 32)
  • Невский.Проверка на прочность (2017) WEBRip [H.264] (сезон 2, серий 1-32 из 32) [MP4|640x360]


    • Комментарии (0):

      Информация

      Информация

        Посетители, находящиеся в группе Гости, не могут оставлять комментарии в данной новости.

        ↓ Меню




        ↓ Опрос

        Вы добавили сайт в закладки?
        Да
        Нет


        Top 10 за месяц (Фильмы)